Вы используете незарегистрированную версию компонента "Вкладки"!

Поиск

2008 Yellowjackets - New Morning - The Paris Concert [HDTV 1080p]

2008 Yellowjackets - New Morning - The Paris Concert [HDTV 1080p]
Состав:
  • Bob Mintzer - sax, Akai EWI
  • Jimmy Haslip - bass
  • Russell Ferrante - keyboards
  • Marcus Baylor - drums, percussion
Описание:

Продолжительность: 01:30:03
Год выпуска: 2008

Качество: BDRip 1080p
Контейнер: MKV
Видео кодек: H.264
Аудио кодек: DTS
Видео: AVC, 1920x1080, 16:9, 10.7 Mbps, 29.97 fps
Аудио: DTS, 1510 kbps, 48 KHz, 6 ch

Отчёт DVDInfo/MediaInfo/BDInfo
General
Unique ID : 240960754697513852299577438985821379087 (0xB5475A712CB9596089244283F4A45A0F)
Complete name : K:\Yellowjackets.The.Paris.Concert.2008.1080p.MBluRay.x264-LOUNGE\Yellowjackets.The.Paris.Concert.2008.1080p.mkv
Format : Matroska
Format version : Version 2
File size : 7.66 GiB
Duration : 1h 30mn
Overall bit rate : 12.2 Mbps
Encoded date : UTC 2012-11-02 08:26:28
Writing application : mkvmerge v5.7.0 ('The Whirlwind') built on Jul 8 2012 20:08:51
Writing library : libebml v1.2.3 + libmatroska v1.3.0

Video
ID : 1
Format : AVC
Format/Info : Advanced Video Codec
Format profile : High@L4.1
Format settings, CABAC : Yes
Format settings, ReFrames : 4 frames
Codec ID : V_MPEG4/ISO/AVC
Duration : 1h 30mn
Bit rate : 10.7 Mbps
Width : 1 920 pixels
Height : 1 080 pixels
Display aspect ratio : 16:9
Frame rate : 29.970 fps
Color space : YUV
Chroma subsampling : 4:2:0
Bit depth : 8 bits
Scan type : Progressive
Bits/(Pixel*Frame) : 0.171
Stream size : 6.55 GiB (86%)
Writing library : x264 core 128 r2216 198a7ea
Encoding settings : cabac=1 / ref=4 / deblock=1:0:0 / analyse=0x3:0x133 / me=umh / subme=8 / psy=1 / psy_rd=1.00:0.00 / mixed_ref=1 / me_range=16 / chroma_me=1 / trellis=1 / 8x8dct=1 / cqm=0 / deadzone=21,11 / fast_pskip=0 / chroma_qp_offset=-2 / threads=12 / lookahead_threads=2 / sliced_threads=0 / nr=0 / decimate=1 / interlaced=0 / bluray_compat=0 / constrained_intra=0 / bframes=3 / b_pyramid=2 / b_adapt=1 / b_bias=0 / direct=1 / weightb=1 / open_gop=0 / weightp=2 / keyint=250 / keyint_min=25 / scenecut=40 / intra_refresh=0 / rc_lookahead=40 / rc=2pass / mbtree=1 / bitrate=10657 / ratetol=1.0 / qcomp=0.60 / qpmin=0 / qpmax=69 / qpstep=4 / cplxblur=20.0 / qblur=0.5 / ip_ratio=1.40 / aq=1:1.00
Language : English
Default : Yes
Forced : No

Audio
ID : 2
Format : DTS
Format/Info : Digital Theater Systems
Codec ID : A_DTS
Duration : 1h 30mn
Bit rate mode : Constant
Bit rate : 1 510 Kbps
Channel(s) : 6 channels
Channel positions : Front: L C R, Side: L R, LFE
Sampling rate : 48.0 KHz
Bit depth : 24 bits
Compression mode : Lossy
Stream size : 973 MiB (12%)
Default : Yes
Forced : No

Menu
00:00:00.000 : en:00:00:00.000
00:05:41.208 : en:00:05:41.208
00:12:43.296 : en:00:12:43.296
00:21:18.811 : en:00:21:18.811
00:31:09.401 : en:00:31:09.401
00:46:16.540 : en:00:46:16.540
00:53:31.575 : en:00:53:31.575
00:58:26.036 : en:00:58:26.036
01:00:46.176 : en:01:00:46.176
01:09:22.525 : en:01:09:22.525
01:14:11.981 : en:01:14:11.981
01:21:54.109 : en:01:21:54.109
Any questions - support@pro-jazz.com. Есть вопросы - support@pro-jazz.com
310
Нет комментариев. Ваш будет первым!