Вы используете незарегистрированную версию компонента "Вкладки"!

Поиск

2011 Femi Kuti - Live in Montreux [HDTV 720p]

2011 Femi Kuti - Live in Montreux [HDTV 720p]
Состав:
  • Femi Kuti: lead vocal, sax
  • Dotun Babatunde Bankole: sax
  • Daniel Bankole: sax
  • Olusola Al Obalorun: trumpet
  • Seye John Adewunmi: trumpet
  • Tiwalade Olusegun Ogunlowo: trombone
  • Oluwaseun Omorilewa Ajayi: keyboards
  • Opeyemi Omotayo Awomolo: guitar
  • Simeon Ademola Adegbola: bass
  • Adebolawe Oloko-Obi: drums
  • Adekunle Solomon Osunniran: percussions
  • Kate Onome Udi: backing vocals, dancer
  • Anthonia Kemona Bernard: backing vocals, dancer
  • Bosede Ajila: backing vocals, dancer
Описание:

 "Montreux Jazz Festival 2011"
Miles Davis Hall
Montreux Music & Convention Centre
Montreux, Switzerland

Продолжительность: 49:58
Год выпуска: 2011

Качество: HDTV 720p
Контейнер: MKV
Видео кодек: H.264
Аудио кодек: AC3
Видео: AVC, 1280x720, 9466 kbps, 50 fps
Аудио: AC3, 448 kbps, 48 kHz, 6 ch
Аудио 2: MP2, 256 kbps, 48 kHz, 2 ch

Отчёт DVDInfo/MediaInfo/BDInfo
Уникальный идентификатор : 214577582700502583286271108261361761614 (0xA16E23A2116DAE62839891D5943C3D4E)
Полное имя : C:\MKV\Femi Kuti - Montreux (2011)[HDTV 720p].mkv
Формат : Matroska
Версия формата : Version 2
Размер файла : 3,62 Гбайт
Продолжительность : 49 м.
Режим общего битрейта : Переменный
Общий поток : 10,4 Мбит/сек
Дата кодирования : UTC 2012-09-06 13:28:56
Программа кодирования : mkvmerge v5.8.0 ('No Sleep / Pillow') built on Sep 2 2012 15:37:04
Библиотека кодирования : libebml v1.2.3 + libmatroska v1.3.0

Видео
Идентификатор : 1
Формат : AVC
Формат/Информация : Advanced Video Codec
Профиль формата : High@L4.0
Параметр CABAC формата : Да
Параметр ReFrames формата : 3 кадра
Параметр GOP формата : M=2, N=24
Идентификатор кодека : V_MPEG4/ISO/AVC
Продолжительность : 49 м.
Вид битрейта : Переменный
Битрейт : 9466 Кбит/сек
Максимальный битрейт : 40,0 Мбит/сек
Ширина : 1280 пикселей
Высота : 720 пикселей
Соотношение сторон : 16:9
Режим частоты кадров : Постоянный
Частота кадров : 50,000 кадров/сек
Стандарт вещания : Component
Цветовое пространство : YUV
Субдискретизация насыщенности : 4:2:0
Битовая глубина : 8 бит
Тип развёртки : Прогрессивная
Бит/(Пиксели*Кадры) : 0.205
Размер потока : 3,30 Гбайт (91%)
Язык : English
Default : Да
Forced : Нет
Основные цвета : BT.709
Характеристики трансфера : BT.709
Коэффициенты матрицы : BT.709

Аудио #1
Идентификатор : 2
Формат : AC-3
Формат/Информация : Audio Coding 3
Расширение режима : CM (complete main)
Параметр Endianness формата : Big
Идентификатор кодека : A_AC3
Продолжительность : 49 м.
Вид битрейта : Постоянный
Битрейт : 448 Кбит/сек
Каналы : 6 каналов
Расположение каналов : Front: L C R, Side: L R, LFE
Частота : 48,0 КГц
Битовая глубина : 16 бит
Метод сжатия : С потерями
Размер потока : 160 Мбайт (4%)
Заголовок : AC3 6 ch
Язык : English
Default : Да
Forced : Нет

Аудио #2
Идентификатор : 3
Формат : MPEG Audio
Версия формата : Version 1
Профиль формата : Layer 2
Идентификатор кодека : A_MPEG/L2
Идентификатор кодека/Подсказка : MP2
Продолжительность : 49 м.
Вид битрейта : Постоянный
Битрейт : 256 Кбит/сек
Каналы : 2 канала
Частота : 48,0 КГц
Метод сжатия : С потерями
Размер потока : 91,5 Мбайт (2%)
Заголовок : MP2 2 ch
Язык : English
Default : Нет
Forced : Нет
Any questions - support@pro-jazz.com. Есть вопросы - support@pro-jazz.com
300
Нет комментариев. Ваш будет первым!