Вы используете незарегистрированную версию компонента "Вкладки"!

Поиск

2010 Trombone Shorty & Orleans Avenue - Austin City Limits [HDTV 1080i]

2010 Trombone Shorty & Orleans Avenue - Austin City Limits [HDTV 1080i]
Описание:

Жанр: Funk
Продолжительность: 27:16
Год выпуска: 2010

Качество: HDTV 1080i
Контейнер: MKV
Видео кодек: MPEG2
Аудио кодек: AC3
Видео: MPEG2, 1920x1080, 10,8 kbps, 29,97 fps
Аудио: AC3, 384 kbps, 48 kHz, 6 ch
Аудио 2: MP2, 256 kbps, 48 kHz, 2 ch

Austin City Limits, University of Texas, Austin, TX, 2010-06-28

Отчёт DVDInfo/MediaInfo/BDInfo
Уникальный идентификатор : 183664813789872554290930997991694322595 (0x8A2C8E7437688B3593DC43E5BB12CBA3)
Полное имя : C:\MKV\Trombone Shorty - Austin City Limits (2010)[HDTV 1080i].mkv
Формат : Matroska
Версия формата : Version 2
Размер файла : 2,23 Гбайт
Продолжительность : 27 м.
Общий поток : 11,7 Мбит/сек
Дата кодирования : UTC 2012-09-02 07:42:09
Программа кодирования : mkvmerge v5.5.0 ('Healer') built on Apr 6 2012 21:43:24
Библиотека кодирования : libebml v1.2.3 + libmatroska v1.3.0

Видео
Идентификатор : 1
Формат : MPEG Video
Версия формата : Version 2
Профиль формата : Main@High
Параметр BVOP формата : Нет
Параметр матрицы формата : Выборочная
Идентификатор кодека : V_MPEG2
Идентификатор кодека/Информация : MPEG 1 or 2 Video
Продолжительность : 27 м.
Битрейт : 10,8 Мбит/сек
Максимальный битрейт : 11,3 Мбит/сек
Ширина : 1920 пикселей
Высота : 1080 пикселей
Соотношение сторон : 16:9
Режим частоты кадров : Постоянный
Частота кадров : 29,970 кадров/сек
Цветовое пространство : YUV
Субдискретизация насыщенности : 4:2:0
Битовая глубина : 8 бит
Тип развёртки : Чересстрочная
Порядок развёртки : Верхнее поле первое
Метод сжатия : С потерями
Бит/(Пиксели*Кадры) : 0.174
Размер потока : 2,06 Гбайт (93%)
Язык : English
Default : Да
Forced : Нет

Аудио #1
Идентификатор : 2
Формат : AC-3
Формат/Информация : Audio Coding 3
Расширение режима : CM (complete main)
Параметр Endianness формата : Big
Идентификатор кодека : A_AC3
Продолжительность : 27 м.
Вид битрейта : Постоянный
Битрейт : 384 Кбит/сек
Каналы : 6 каналов
Расположение каналов : Front: L C R, Side: L R, LFE
Частота : 48,0 КГц
Битовая глубина : 16 бит
Метод сжатия : С потерями
Размер потока : 74,9 Мбайт (3%)
Заголовок : AC3 6 ch
Язык : English
Default : Да
Forced : Нет

Аудио #2
Идентификатор : 3
Формат : MPEG Audio
Версия формата : Version 1
Профиль формата : Layer 2
Идентификатор кодека : A_MPEG/L2
Идентификатор кодека/Подсказка : MP2
Продолжительность : 27 м.
Вид битрейта : Постоянный
Битрейт : 256 Кбит/сек
Каналы : 2 канала
Частота : 48,0 КГц
Метод сжатия : С потерями
Размер потока : 49,9 Мбайт (2%)
Заголовок : MP2 2 ch
Язык : English
Default : Нет
Forced : Нет

Меню
00:00:00.000 : Where Y'at?
00:03:15.000 : Hurricane Season
00:08:11.000 : One Night Only (The March)
00:11:53.000 : Backatown
00:17:25.000 : James Brown Medley > Feel Like Funkin' It Up
Any questions - support@pro-jazz.com. Есть вопросы - support@pro-jazz.com
197
Нет комментариев. Ваш будет первым!