Вы используете незарегистрированную версию компонента "Вкладки"!

Поиск

1993 Etta James - Live At Montreux (2012) [Blu-ray]

1993 Etta James - Live At Montreux (2012) [Blu-ray]
Описание:

Жанр: Blues, R&B, Jazz, Soul, Gospel
Продолжительность: 01:04:18 + 01:36:14 (Bonus tracks)
Год выпуска: 2012
Выпущено: Eagle Rock Entertainment

Качество: Blu-ray
Контейнер: BDMV
Видео кодек: AVC
Аудио кодек: DTS, PCM
Видео: MPEG-4 AVC 29369 kbps 1920*1080i / 29,970 fps / 16:9 / High Profile 4.1
Аудио#1: English DTS-HD MA 5.1 / 48 kHz / 4558 kbps / 24-bit (DTS Core: 5.1 / 48 kHz / 768 kbps / 24-bit)
Аудио#2: English LPCM 2.0 / 48 kHz / 2304 kbps / 24-bit

Thanks to alexshel at HDGeek

Отчёт DVDInfo/MediaInfo/BDInfo
Disc Title: ETTA_JAMES
Disc Size: 39 045 330 927 bytes
Protection: AACS
BD-Java: No
BDInfo: 0.5.6

Notes:

BDINFO HOME:
Cinema Squid
http://www.cinemasquid.com/blu-ray/tools/bdinfo

INCLUDES FORUMS REPORT FOR:
AVS Forum Blu-ray Audio and Video Specifications Thread
http://www.avsforum.com/avs-vb/showthread.php?t=1155731

********************
PLAYLIST: 00001.MPLS
********************

<--- BEGIN FORUMS PASTE --->
Код:
Total Video
Title Codec Length Movie Size Disc Size Bitrate Bitrate Main Audio Track Secondary Audio Track
----- ------ ------- -------------- -------------- ------- ------- ------------------ ---------------------
00001.MPLS AVC 1:36:14 20 194 824 192 39 045 330 927 27,98 19,91 DTS-HD Master 5.1 4318Kbps (48kHz/24-bit) LPCM 2.0 2304Kbps (48kHz/24-bit)
Код:
DISC INFO:

Disc Title: ETTA_JAMES
Disc Size: 39 045 330 927 bytes
Protection: AACS
BD-Java: No
BDInfo: 0.5.6

PLAYLIST REPORT:

Name: 00001.MPLS
Length: 1:36:14 (h:m:s)
Size: 20 194 824 192 bytes
Total Bitrate: 27,98 Mbps

VIDEO:

Codec Bitrate Description
----- ------- -----------
MPEG-4 AVC Video 19910 kbps 1080i / 29,970 fps / 16:9 / High Profile 4.1

AUDIO:

Codec Language Bitrate Description
----- -------- ------- -----------
DTS-HD Master Audio English 4318 kbps 5.1 / 48 kHz / 4318 kbps / 24-bit (DTS Core: 5.1 / 48 kHz / 768 kbps / 24-bit)
LPCM Audio English 2304 kbps 2.0 / 48 kHz / 2304 kbps / 24-bit

FILES:

Name Time In Length Size Total Bitrate
---- ------- ------ ---- -------------
00001.M2TS 0:00:00.000 0:42:16.433 8 833 449 984 27 861
00008.M2TS 0:42:16.433 0:07:25.678 1 511 792 640 27 137
00009.M2TS 0:49:42.112 0:07:22.842 1 556 219 904 28 113
00010.M2TS 0:57:04.954 0:30:39.904 6 524 418 048 28 369
00012.M2TS 1:27:44.859 0:08:29.275 1 768 943 616 27 788

CHAPTERS:

Number Time In Length Avg Video Rate Max 1-Sec Rate Max 1-Sec Time Max 5-Sec Rate Max 5-Sec Time Max 10Sec Rate Max 10Sec Time Avg Frame Size Max Frame Size Max Frame Time
------ ------- ------ -------------- -------------- -------------- -------------- -------------- -------------- -------------- -------------- -------------- --------------
1 0:00:00.000 0:10:57.590 21 309 kbps 47 032 kbps 00:03:42.355 34 095 kbps 00:03:40.186 30 501 kbps 00:10:10.643 88 872 bytes 434 033 bytes 00:06:12.038
2 0:10:57.590 0:11:39.598 19 392 kbps 39 801 kbps 00:17:47.499 32 246 kbps 00:14:18.524 28 555 kbps 00:14:16.722 80 880 bytes 425 514 bytes 00:18:45.290
3 0:22:37.189 0:11:25.785 20 896 kbps 39 612 kbps 00:24:56.962 31 635 kbps 00:24:56.962 29 375 kbps 00:28:42.987 87 156 bytes 434 537 bytes 00:23:22.134
4 0:34:02.974 0:08:13.459 17 869 kbps 44 369 kbps 00:37:13.030 33 118 kbps 00:37:12.530 27 246 kbps 00:37:12.697 74 528 bytes 423 217 bytes 00:34:39.577
5 0:42:16.433 0:07:25.678 18 840 kbps 38 293 kbps 00:49:24.294 32 830 kbps 00:49:23.493 26 631 kbps 00:49:20.090 78 580 bytes 320 325 bytes 00:49:27.030
6 0:49:42.112 0:07:22.842 19 998 kbps 40 903 kbps 00:55:52.282 31 373 kbps 00:55:52.282 29 782 kbps 00:55:51.981 83 409 bytes 397 193 bytes 00:55:52.482
7 0:57:04.954 0:05:09.042 18 762 kbps 49 011 kbps 00:57:52.602 38 612 kbps 01:00:25.688 30 161 kbps 01:00:21.818 78 255 bytes 449 912 bytes 00:57:54.470
8 1:02:13.996 0:06:33.993 19 715 kbps 54 808 kbps 01:08:03.913 38 805 kbps 01:06:17.873 34 607 kbps 01:06:17.907 82 229 bytes 690 827 bytes 01:07:04.053
9 1:08:47.990 0:05:04.037 18 906 kbps 40 011 kbps 01:11:53.308 31 985 kbps 01:08:58.400 28 781 kbps 01:08:53.896 78 852 bytes 331 993 bytes 01:11:53.342
10 1:13:52.027 0:05:25.925 22 077 kbps 42 691 kbps 01:16:49.371 38 551 kbps 01:16:46.768 34 717 kbps 01:17:29.378 92 080 bytes 402 590 bytes 01:16:52.441
11 1:19:17.953 0:08:26.906 20 294 kbps 37 901 kbps 01:26:58.980 32 683 kbps 01:25:04.466 31 141 kbps 01:23:32.173 84 642 bytes 335 785 bytes 01:25:38.433
12 1:27:44.859 0:08:29.275 19 998 kbps 43 807 kbps 01:30:46.374 37 529 kbps 01:30:42.970 31 465 kbps 01:30:38.166 83 412 bytes 380 232 bytes 01:30:46.207

STREAM DIAGNOSTICS:

File PID Type Codec Language Seconds Bitrate Bytes Packets
---- --- ---- ----- -------- -------------- -------------- ------------- -----
00001.M2TS 4113 (0x1011) 0x1B AVC 2536,367 20 000 6 340 871 948 34 505 693
00001.M2TS 4352 (0x1100) 0x80 LPCM eng (English) 2536,367 2 311 732 593 184 4 058 688
00001.M2TS 4353 (0x1101) 0x86 DTS-HD MA eng (English) 2536,367 4 128 1 308 784 796 7 358 168
00008.M2TS 4113 (0x1011) 0x1B AVC 445,578 18 843 1 049 528 788 5 711 797
00008.M2TS 4352 (0x1100) 0x80 LPCM eng (English) 445,578 2 444 136 124 436 754 152
00008.M2TS 4353 (0x1101) 0x86 DTS-HD MA eng (English) 445,578 4 448 247 746 764 1 392 145
00009.M2TS 4113 (0x1011) 0x1B AVC 442,742 20 003 1 107 000 665 6 024 073
00009.M2TS 4352 (0x1100) 0x80 LPCM eng (English) 442,742 2 313 127 986 052 709 064
00009.M2TS 4353 (0x1101) 0x86 DTS-HD MA eng (English) 442,742 4 370 241 849 960 1 357 309
00010.M2TS 4113 (0x1011) 0x1B AVC 1839,838 20 000 4 599 568 573 25 029 767
00010.M2TS 4352 (0x1100) 0x80 LPCM eng (English) 1839,838 2 311 531 443 984 2 944 288
00010.M2TS 4353 (0x1101) 0x86 DTS-HD MA eng (English) 1839,838 4 614 1 061 199 144 5 945 613
00012.M2TS 4113 (0x1011) 0x1B AVC 509,209 20 001 1 273 114 815 6 927 979
00012.M2TS 4352 (0x1100) 0x80 LPCM eng (English) 509,209 2 329 148 216 492 821 144
00012.M2TS 4353 (0x1101) 0x86 DTS-HD MA eng (English) 509,209 4 039 257 059 012 1 446 887
<---- END FORUMS PASTE ---->

QUICK SUMMARY:

Disc Title: ETTA_JAMES
Disc Size: 39 045 330 927 bytes
Protection: AACS
BD-Java: No
Playlist: 00001.MPLS
Size: 20 194 824 192 bytes
Length: 1:36:14
Total Bitrate: 27,98 Mbps
Video: MPEG-4 AVC Video / 19910 kbps / 1080i / 29,970 fps / 16:9 / High Profile 4.1
Audio: English / DTS-HD Master Audio / 5.1 / 48 kHz / 4318 kbps / 24-bit (DTS Core: 5.1 / 48 kHz / 768 kbps / 24-bit)
Audio: English / LPCM Audio / 2.0 / 48 kHz / 2304 kbps / 24-bit

********************
PLAYLIST: 00000.MPLS
********************

<--- BEGIN FORUMS PASTE --->
Код:
Total Video
Title Codec Length Movie Size Disc Size Bitrate Bitrate Main Audio Track Secondary Audio Track
----- ------ ------- -------------- -------------- ------- ------- ------------------ ---------------------
00000.MPLS AVC 1:04:18 18 370 185 216 39 045 330 927 38,09 29,37 DTS-HD Master 5.1 4558Kbps (48kHz/24-bit) LPCM 2.0 2304Kbps (48kHz/24-bit)
Код:
DISC INFO:

Disc Title: ETTA_JAMES
Disc Size: 39 045 330 927 bytes
Protection: AACS
BD-Java: No
BDInfo: 0.5.6

PLAYLIST REPORT:

Name: 00000.MPLS
Length: 1:04:18 (h:m:s)
Size: 18 370 185 216 bytes
Total Bitrate: 38,09 Mbps

VIDEO:

Codec Bitrate Description
----- ------- -----------
MPEG-4 AVC Video 29369 kbps 1080i / 29,970 fps / 16:9 / High Profile 4.1

AUDIO:

Codec Language Bitrate Description
----- -------- ------- -----------
DTS-HD Master Audio English 4558 kbps 5.1 / 48 kHz / 4558 kbps / 24-bit (DTS Core: 5.1 / 48 kHz / 768 kbps / 24-bit)
LPCM Audio English 2304 kbps 2.0 / 48 kHz / 2304 kbps / 24-bit

FILES:

Name Time In Length Size Total Bitrate
---- ------- ------ ---- -------------
00000.M2TS 0:00:00.000 1:04:18.621 18 370 185 216 38 087

CHAPTERS:

Number Time In Length Avg Video Rate Max 1-Sec Rate Max 1-Sec Time Max 5-Sec Rate Max 5-Sec Time Max 10Sec Rate Max 10Sec Time Avg Frame Size Max Frame Size Max Frame Time
------ ------- ------ -------------- -------------- -------------- -------------- -------------- -------------- -------------- -------------- -------------- --------------
1 0:00:00.000 0:04:26.332 25 701 kbps 63 700 kbps 00:00:02.902 40 735 kbps 00:00:19.052 37 872 kbps 00:00:18.952 107 182 bytes 597 233 bytes 00:00:03.603
2 0:04:26.332 0:03:44.958 26 555 kbps 44 751 kbps 00:06:58.217 40 249 kbps 00:06:26.586 33 726 kbps 00:06:26.586 110 757 bytes 607 210 bytes 00:06:32.658
3 0:08:11.290 0:04:37.076 32 740 kbps 55 405 kbps 00:10:29.729 40 540 kbps 00:08:25.972 37 868 kbps 00:09:29.535 136 553 bytes 659 860 bytes 00:11:52.545
4 0:12:48.367 0:07:12.365 27 554 kbps 43 284 kbps 00:19:47.619 39 510 kbps 00:19:45.684 36 225 kbps 00:17:57.176 114 923 bytes 553 916 bytes 00:19:48.353
5 0:20:00.732 0:06:08.868 32 152 kbps 53 125 kbps 00:23:14.626 40 587 kbps 00:23:53.865 37 876 kbps 00:23:54.032 134 101 bytes 717 601 bytes 00:24:52.023
6 0:26:09.601 0:04:25.665 27 486 kbps 38 804 kbps 00:27:00.619 35 020 kbps 00:29:24.763 33 492 kbps 00:26:59.618 114 640 bytes 477 249 bytes 00:30:32.163
7 0:30:35.266 0:06:07.066 31 049 kbps 51 097 kbps 00:32:30.782 40 609 kbps 00:33:46.824 37 831 kbps 00:34:52.723 129 501 bytes 675 572 bytes 00:34:00.171
8 0:36:42.333 0:03:41.020 31 215 kbps 52 771 kbps 00:37:37.555 40 465 kbps 00:38:25.202 37 797 kbps 00:37:07.658 130 194 bytes 661 727 bytes 00:39:07.044
9 0:40:23.354 0:08:37.917 29 062 kbps 49 354 kbps 00:43:19.196 40 506 kbps 00:46:37.795 37 155 kbps 00:43:55.866 121 212 bytes 636 763 bytes 00:46:41.999
10 0:49:01.271 0:05:53.086 30 628 kbps 47 609 kbps 00:54:08.511 40 595 kbps 00:49:51.955 37 832 kbps 00:49:48.552 127 745 bytes 698 854 bytes 00:53:57.467
11 0:54:54.357 0:09:24.263 28 704 kbps 50 254 kbps 00:59:18.621 40 440 kbps 00:59:14.817 37 870 kbps 00:59:01.204 119 727 bytes 683 267 bytes 01:01:07.897

STREAM DIAGNOSTICS:

File PID Type Codec Language Seconds Bitrate Bytes Packets
---- --- ---- ----- -------- -------------- -------------- ------------- -----
00000.M2TS 4113 (0x1011) 0x1B AVC 3858,488 29 370 14 165 598 012 77 054 499
00000.M2TS 4352 (0x1100) 0x80 LPCM eng (English) 3858,488 2 310 1 114 082 100 6 172 200
00000.M2TS 4353 (0x1101) 0x86 DTS-HD MA eng (English) 3858,488 4 558 2 198 580 320 12 322 043
<---- END FORUMS PASTE ---->

QUICK SUMMARY:

Disc Title: ETTA_JAMES
Disc Size: 39 045 330 927 bytes
Protection: AACS
BD-Java: No
Playlist: 00000.MPLS
Size: 18 370 185 216 bytes
Length: 1:04:18
Total Bitrate: 38,09 Mbps
Video: MPEG-4 AVC Video / 29369 kbps / 1080i / 29,970 fps / 16:9 / High Profile 4.1
Audio: English / DTS-HD Master Audio / 5.1 / 48 kHz / 4558 kbps / 24-bit (DTS Core: 5.1 / 48 kHz / 768 kbps / 24-bit)
Audio: English / LPCM Audio / 2.0 / 48 kHz / 2304 kbps / 24-bit
Any questions - support@pro-jazz.com. Есть вопросы - support@pro-jazz.com
367
17:04