Поиск

2004 Amy Winehouse - Live at New Pop Festival [HDTV 720p]

2004 Amy Winehouse - Live at New Pop Festival [HDTV 720p]
Треклист:

01. October Song
02. You Sent Me Flying
03. In My Bed
04. Take The Box
05. Love Is Blind
06. Brother
07. Mr. Magic
08. (There Is) No Greater Love
09. Stronger Than Me
10. f**k Me Pumps

Продолжительность: 00:43:28
Год выпуска: 2012

Качество: HDTV 720p
Контейнер: TS
Видео кодек: H.264
Аудио кодек: MP2
Видео: H.264 1280x720 4:3 12Mbps 59fps
Аудио: MP2 192kbps 48kHz 2.0ch

Отчёт DVDInfo/MediaInfo/BDInfo
Общее
Идентификатор : 1019 (0x3FB)
Полное имя : E:\Downloads\Amy.Winehouse.N.P.Festival.by.dudugames.ts
Формат : MPEG-TS
Размер файла : 3,77 Гбайт
Продолжительность : 43 м.
Общий поток : 12,4 Мбит/сек

Видео
Идентификатор : 5111 (0x13F7)
Идентификатор меню : 10302 (0x283E)
Формат : AVC
Формат/Информация : Advanced Video Codec
Профиль формата : High@L3.2
Параметр CABAC формата : Да
Параметр ReFrames формата : 4 кадра
Идентификатор кодека : 27
Продолжительность : 43 м.
Битрейт : 11,0 Мбит/сек
Ширина : 1280 пикселей
Высота : 720 пикселей
Соотношение сторон : 16:9
Частота кадров : 50,000 кадров/сек
Цветовое пространство : YUV
Субдискретизация насыщенности : 4:2:0
Битовая глубина : 8 бит
Тип развёртки : Прогрессивная
Бит/(Пиксели*Кадры) : 0.238
Размер потока : 3,33 Гбайт (88%)

Аудио #1
Идентификатор : 5112 (0x13F8)
Идентификатор меню : 10302 (0x283E)
Формат : MPEG Audio
Версия формата : Version 1
Профиль формата : Layer 2
Идентификатор кодека : 3
Продолжительность : 43 м.
Вид битрейта : Постоянный
Битрейт : 192 Кбит/сек
Каналы : 2 канала
Частота : 48,0 КГц
Метод сжатия : С потерями
Задержка видео : 77 мс.
Размер потока : 59,7 Мбайт (2%)
Язык : German

Аудио #2
Идентификатор : 5113 (0x13F9)
Идентификатор меню : 10302 (0x283E)
Формат : MPEG Audio
Версия формата : Version 1
Профиль формата : Layer 2
Идентификатор кодека : 3
Продолжительность : 43 м.
Вид битрейта : Постоянный
Битрейт : 192 Кбит/сек
Каналы : 2 канала
Частота : 48,0 КГц
Метод сжатия : С потерями
Задержка видео : 77 мс.
Размер потока : 59,7 Мбайт (2%)
Язык : French

Аудио #3
Идентификатор : 5116 (0x13FC)
Идентификатор меню : 10302 (0x283E)
Формат : AC-3
Формат/Информация : Audio Coding 3
Расширение режима : CM (complete main)
Параметр Endianness формата : Big
Идентификатор кодека : 6
Продолжительность : 43 м.
Вид битрейта : Постоянный
Битрейт : 448 Кбит/сек
Каналы : 2 канала
Расположение каналов : Front: L R
Частота : 48,0 КГц
Битовая глубина : 16 бит
Метод сжатия : С потерями
Задержка видео : 125 мс.
Размер потока : 139 Мбайт (4%)
Язык : German

Текст
Идентификатор : 5114 (0x13FA)-100
Идентификатор меню : 10302 (0x283E)
Формат : Teletext
Язык : German
Скриншоты видео
2004 Amy Winehouse - Live at New Pop Festival [HDTV 720p] 02004 Amy Winehouse - Live at New Pop Festival [HDTV 720p] 12004 Amy Winehouse - Live at New Pop Festival [HDTV 720p] 2
По всем вопросам пишите личное сообщение пользователю M0p94ok.
571
Нет комментариев. Ваш будет первым!