Вы используете незарегистрированную версию компонента "Вкладки"!

Поиск

2011 Pink Martini - Avo Session [HDTV 720p]

2011 Pink Martini - Avo Session [HDTV 720p]
Состав:
  • Storm Large (vocals)
  • Thomas Lauderdale (piano)
  • Robert Taylor (trombone)
  • Gavin Bondy (trumpet)
  • Brian Lavern Davis (percussion)
  • Derek Rieth (percussion)
  • Martin Zarzar (drums)
  • Phil Baker (upright bass)
  • Timothy Nishimoto (vocals and percussion)
  • Nicholas Crosa (violin)
  • Dan Faehnle (guitar)

Жанр: Jazz, latin, lounge music
Продолжительность: 1h10min
Год выпуска: 2011

Качество: HDTV 720p
Контейнер: TS
Видео кодек: H.264
Аудио кодек: AC3
Видео: h.264,1280*720,~10.0 Mbps,50fps
Аудио: AC-3,448 Kbps,48.0 KHz,6 channels
Аудио 2: MPEG Audio,192 Kbps,48.0 KHz,2ch
Аудио 3: MPEG Audio,192 Kbps,48.0 KHz,2ch

Отчёт DVDInfo/MediaInfo/BDInfo
Complete name : \\BM750\Harddisk\movie\20120819 0345 - RSI LA 2 HD - Pink Martini.ts
Format : MPEG-TS
File size : 6.16 GiB
Duration : 1h 15mn
Overall bit rate : 11.7 Mbps
Video #562
ID : 562 (0x232)
Menu ID : 951 (0x3B7)
Format : AVC
Format/Info : Advanced Video Codec
Format profile : High@L4.0
Format settings, CABAC : Yes
Format settings, ReFrames : 3 frames
Duration : 1h 15mn
Bit rate : 10.0 Mbps
Width : 1 280 pixels
Height : 720 pixels
Display aspect ratio : 16:9
Frame rate : 50.000 fps
Standard : Component
Resolution : 24 bits
Colorimetry : 4:2:0
Scan type : Progressive
Bits/(Pixel*Frame) : 0.217
Stream size : 5.29 GiB (86%)
colour_primaries : BT.709-5, BT.1361, IEC 61966-2-4, SMPTE RP177
transfer_characteristics : BT.709-5, BT.1361
matrix_coefficients : BT.709-5, BT.1361, IEC 61966-2-4 709, SMPTE RP177
Audio #563
ID : 563 (0x233)
Menu ID : 951 (0x3B7)
Format : MPEG Audio
Format version : Version 1
Format profile : Layer 2
Duration : 1h 15mn
Bit rate mode : Constant
Bit rate : 192 Kbps
Channel(s) : 2 channels
Sampling rate : 48.0 KHz
Resolution : 16 bits
Video delay : -860ms
Stream size : 104 MiB (2%)
Language : Italian
Language, more info : Clean effects
Audio #564
ID : 564 (0x234)
Menu ID : 951 (0x3B7)
Format : MPEG Audio
Format version : Version 1
Format profile : Layer 2
Duration : 1h 15mn
Bit rate mode : Constant
Bit rate : 192 Kbps
Channel(s) : 2 channels
Sampling rate : 48.0 KHz
Resolution : 16 bits
Video delay : -860ms
Stream size : 104 MiB (2%)
Language : English
Language, more info : Clean effects
Audio #565
ID : 565 (0x235)
Menu ID : 951 (0x3B7)
Format : AC-3
Format/Info : Audio Coding 3
Duration : 1h 15mn
Bit rate mode : Constant
Bit rate : 448 Kbps
Channel(s) : 6 channels
Channel positions : Front: L C R, Surround: L R, LFE
Sampling rate : 48.0 KHz
Video delay : -876ms
Stream size : 242 MiB (4%)
Language : Multiple languages
Language, more info : Clean effects
Any questions - support@pro-jazz.com. Есть вопросы - support@pro-jazz.com
229
Нет комментариев. Ваш будет первым!