Вы используете незарегистрированную версию компонента "Вкладки"!

Поиск

2012 Amy Winehouse - Fallen Star [BDRip 720p]

2012 Amy Winehouse - Fallen Star [BDRip 720p]
Описание:

Год выпуска: 2012
Жанр: Documentary
Продолжительность: 0:50:32
Качество: BDRip 720p
Контейнер: IMKV
Видео кодек: MPEG-4 AVC
Аудио кодек: AC3
Видео: 1280x720 / 16:9 / 23,976 fps / ~6003 Kbps
Аудио: English AC3 Stereo / 48 kHz / 192 kbps / 16 bits
Перевода нет, русских субтитров нет.
Дополнительно:
http://www.amazon.com/Fallen-Star-Blu-ray-Amy-Winehouse/dp/B0071BY1GK

Отчёт DVDInfo/MediaInfo/BDInfo
Код:
General
Unique ID : 194576586549771879601794544731311105428 (0x92621663351D8252A3098D848018E594)
Complete name : C:\Amy.Winehouse.Fallen.Star.2012.DOCU.720p.BluRay.x264-LOUNGE.mkv
Format : Matroska
Format version : Version 2
File size : 2.18 GiB
Duration : 50mn 32s
Overall bit rate : 6 188 Kbps
Encoded date : UTC 2012-08-18 13:42:03
Writing application : mkvmerge v5.7.0 ('The Whirlwind') built on Jul 8 2012 20:08:51
Writing library : libebml v1.2.3 + libmatroska v1.3.0

Video
ID : 1
Format : AVC
Format/Info : Advanced Video Codec
Format profile : High@L4.1
Format settings, CABAC : Yes
Format settings, ReFrames : 5 frames
Format settings, GOP : M=4, N=32
Codec ID : V_MPEG4/ISO/AVC
Duration : 50mn 32s
Bit rate : 6 003 Kbps
Width : 1 280 pixels
Height : 720 pixels
Display aspect ratio : 16:9
Frame rate : 23.976 fps
Color space : YUV
Chroma subsampling : 4:2:0
Bit depth : 8 bits
Scan type : Progressive
Bits/(Pixel*Frame) : 0.272
Stream size : 2.07 GiB (95%)
Writing library : x264 core 125 r2208 d9d2288
Encoding settings : cabac=1 / ref=5 / deblock=1:0:0 / analyse=0x3:0x133 / me=umh / subme=8 / psy=1 / psy_rd=1.00:0.00 / mixed_ref=1 / me_range=16 / chroma_me=1 / trellis=1 / 8x8dct=1 / cqm=0 / deadzone=21,11 / fast_pskip=0 / chroma_qp_offset=-2 / threads=12 / lookahead_threads=2 / sliced_threads=0 / nr=0 / decimate=1 / interlaced=0 / bluray_compat=0 / constrained_intra=0 / bframes=3 / b_pyramid=2 / b_adapt=1 / b_bias=0 / direct=1 / weightb=1 / open_gop=0 / weightp=2 / keyint=250 / keyint_min=23 / scenecut=40 / intra_refresh=0 / rc_lookahead=40 / rc=2pass / mbtree=1 / bitrate=6003 / ratetol=1.0 / qcomp=0.60 / qpmin=0 / qpmax=69 / qpstep=4 / cplxblur=20.0 / qblur=0.5 / ip_ratio=1.40 / aq=1:1.00
Language : English

Audio
ID : 2
Format : AC-3
Format/Info : Audio Coding 3
Mode extension : CM (complete main)
Codec ID : A_AC3
Duration : 50mn 32s
Bit rate mode : Constant
Bit rate : 192 Kbps
Channel(s) : 2 channels
Channel positions : Front: L R
Sampling rate : 48.0 KHz
Bit depth : 16 bits
Compression mode : Lossy
Stream size : 69.4 MiB (3%)

Menu
00:00:00.000 : en:00:00:00.000
00:00:00.375 : en:00:00:00.375
00:04:54.795 : en:00:04:54.795
00:15:42.442 : en:00:15:42.442
00:30:46.845 : en:00:30:46.845
00:41:53.011 : en:00:41:53.011
00:49:11.949 : en:00:49:11.949
Any questions - support@pro-jazz.com. Есть вопросы - support@pro-jazz.com
397
Нет комментариев. Ваш будет первым!