Вы используете незарегистрированную версию компонента "Вкладки"!

Поиск

2014 Aaron Goldberg Trio - Live at EFG London Jazz Fest [HDTV 1080i]

2014 Aaron Goldberg Trio - Live at EFG London Jazz Fest [HDTV 1080i]
Дата проведения концерта (записи):
20 ноября 2014
Место проведения:
Pizza Express Jazz Club
Время звучания:
00:55:25
Состав:
Видео:
AVC,1920*1080i (16:9), 4802kbps, 25fps
Аудио#1:
MPEG2, 256kbps, 48kHz, 2ch
Отчёт DVDInfo/MediaInfo/BDInfo
Общее
Уникальный идентификатор : 140100569458648732283768080220430849671 (0x69666360B8D90F2A5003200D8ED4D687)
Полное имя : \\NASF8F4EB\Videos\HD Video\Aaron Goldberg\2014 Aaron Goldberg Trio - Live at EFG London Jazz Fest [HDTV 1080i]\2014 Aaron Goldberg Trio - At EFG London Jazz Fest.mkv
Формат : Matroska
Версия формата : Version 2
Размер файла : 2,00 Гбайт
Продолжительность : 55 м. 24 с.
Общий поток : 5161 Кбит/сек
Программа кодирования : Lavf54.63.104
Библиотека кодирования : Lavf54.63.104

Видео
Идентификатор : 1
Формат : AVC
Формат/Информация : Advanced Video Codec
Профиль формата : High@L4
Настройки формата : CABAC / 4 Ref Frames
Параметр CABAC формата : Да
Параметр RefFrames формата : 4 кадра
Идентификатор кодека : V_MPEG4/ISO/AVC
Продолжительность : 55 м. 24 с.
Битрейт : 4802 Кбит/сек
Ширина : 1920 пикселей
Высота : 1080 пикселей
Соотношение сторон : 16:9
Режим частоты кадров : Постоянный
Частота кадров : 25,000 кадров/сек
Стандарт вещания : Component
Цветовое пространство : YUV
Субдискретизация насыщенности : 4:2:0
Битовая глубина : 8 бит
Тип развёртки : Чересстрочная
Метод сохранения типа развёртки : Раздельные поля
Порядок развёртки : Верхнее поле первое
Бит/(Пиксели*Кадры) : 0.093
Размер потока : 1,86 Гбайт (93%)
Default : Нет
Forced : Нет
Цветовой диапазон : Limited
Основные цвета : BT.709
Характеристики трансфера : BT.709
Коэффициенты матрицы : BT.709

Аудио
Идентификатор : 2
Формат : MPEG Audio
Версия формата : Version 1
Профиль формата : Layer 2
Идентификатор кодека : A_MPEG/L2
Идентификатор кодека/Подсказка : MP2
Продолжительность : 55 м. 24 с.
Вид битрейта : Постоянный
Битрейт : 256 Кбит/сек
Каналы : 2 канала
Частота : 48,0 КГц
Метод сжатия : С потерями
Размер потока : 101 Мбайт (5%)
Язык : Russian
Default : Да
Forced : Нет
Any questions - support@pro-jazz.com. Есть вопросы - support@pro-jazz.com
296
Нет комментариев. Ваш будет первым!