Поиск

2011 Joao Bosco & NDR Bigband - JazzBaltica [HDTV 720p]

2011 Joao Bosco & NDR Bigband - JazzBaltica [HDTV 720p]
Состав:

• JOÃO BOSCO - guitar, vocals
• KIKO FREITAS - drums
• NDR Bigband directed by JÖRG ACHIM KELLER
• DAN GOTTSHALL - trombone
• PETER BOLTE - alto sax
• CLAUS STÖTTER - flugelhorn
• SEBASTIAN GILLE - tenor sax, flute
• INGOLF BURKHARDT - trumpet
• FRANK DELLE - baritone sax
• FIETE FELSCH - flute
• LUTZ BÜCHNER - tenor sax
• SEBASTIAN GILLE - tenor sax
• REINER WINTERSCHLADEN - trumpet
• VLADYSLAV SENDECKI - piano, keyboards

Продолжительность: 39:48
Год выпуска: 2011

Качество: HDTV 720p
Контейнер: MKV
Видео кодек: H.264
Аудио кодек: AC3
Видео: AVC, 1280x720, 50 fps
Аудио: AC3, 256 kbps, 48 kHz, 2 ch
Аудио 2: MP2, 256 kbps, 48 kHz, 2 ch
Описание: Große Konzertscheue, Jazzbaltica, Salzau, Germany, 2011-07-03

Треклист:

1. Incompatibilidade de Gênios
2. Coisa Feita
3. Desafinado
4. Pretaporter de Tafeta
5. Bate Um Balaio
6. Linha de Passe
7. O Bêbado e a Equilibrista

Отчёт DVDInfo/MediaInfo/BDInfo
Уникальный идентификатор : 233593168747728320353027179726617456273 (0xAFBC6868D414AC30AD4673D027042E91)
Полное имя : C:\MKV\Joao Bosco & NDR Bigband - JazzBaltica (2011)[HDTV 720p].mkv
Формат : Matroska
Версия формата : Version 2
Размер файла : 3,82 Гбайт
Продолжительность : 39 м.
Режим общего битрейта : Переменный
Общий поток : 13,7 Мбит/сек
Дата кодирования : UTC 2012-08-05 15:18:23
Программа кодирования : mkvmerge v5.5.0 ('Healer') built on Apr 6 2012 21:43:24
Библиотека кодирования : libebml v1.2.3 + libmatroska v1.3.0

Видео
Идентификатор : 1
Формат : AVC
Формат/Информация : Advanced Video Codec
Профиль формата : High@L4.0
Параметр CABAC формата : Да
Параметр ReFrames формата : 6 кадров
Идентификатор кодека : V_MPEG4/ISO/AVC
Продолжительность : 39 м.
Вид битрейта : Переменный
Битрейт : 13,0 Мбит/сек
Максимальный битрейт : 40,0 Мбит/сек
Ширина : 1280 пикселей
Высота : 720 пикселей
Соотношение сторон : 16:9
Частота кадров : 50,000 кадров/сек
Цветовое пространство : YUV
Субдискретизация насыщенности : 4:2:0
Битовая глубина : 8 бит
Тип развёртки : Прогрессивная
Бит/(Пиксели*Кадры) : 0.281
Размер потока : 3,60 Гбайт (94%)
Язык : English
Default : Да
Forced : Нет
Основные цвета : BT.709-5, BT.1361, IEC 61966-2-4, SMPTE RP177
Характеристики трансфера : BT.709-5, BT.1361
Коэффициенты матрицы : BT.709-5, BT.1361, IEC 61966-2-4 709, SMPTE RP177

Аудио #1
Идентификатор : 2
Формат : AC-3
Формат/Информация : Audio Coding 3
Расширение режима : CM (complete main)
Параметр Endianness формата : Big
Идентификатор кодека : A_AC3
Продолжительность : 39 м.
Вид битрейта : Постоянный
Битрейт : 256 Кбит/сек
Каналы : 2 канала
Расположение каналов : Front: L R
Частота : 48,0 КГц
Битовая глубина : 16 бит
Метод сжатия : С потерями
Размер потока : 72,9 Мбайт (2%)
Заголовок : AC3 2ch
Язык : English
Default : Да
Forced : Нет

Аудио #2
Идентификатор : 3
Формат : MPEG Audio
Версия формата : Version 1
Профиль формата : Layer 2
Идентификатор кодека : A_MPEG/L2
Идентификатор кодека/Подсказка : MP2
Продолжительность : 39 м.
Вид битрейта : Постоянный
Битрейт : 256 Кбит/сек
Каналы : 2 канала
Частота : 48,0 КГц
Метод сжатия : С потерями
Размер потока : 72,9 Мбайт (2%)
Заголовок : MP2 2ch
Язык : English
Default : Нет
Forced : Нет
Скриншоты видео
2011 Joao Bosco & NDR Bigband - JazzBaltica [HDTV 720p] 02011 Joao Bosco & NDR Bigband - JazzBaltica [HDTV 720p] 12011 Joao Bosco & NDR Bigband - JazzBaltica [HDTV 720p] 22011 Joao Bosco & NDR Bigband - JazzBaltica [HDTV 720p] 32011 Joao Bosco & NDR Bigband - JazzBaltica [HDTV 720p] 42011 Joao Bosco & NDR Bigband - JazzBaltica [HDTV 720p] 52011 Joao Bosco & NDR Bigband - JazzBaltica [HDTV 720p] 62011 Joao Bosco & NDR Bigband - JazzBaltica [HDTV 720p] 7
По всем вопросам пишите личное сообщение пользователю M0p94ok.
452
Нет комментариев. Ваш будет первым!