Вы используете незарегистрированную версию компонента "Вкладки"!

Поиск

2011 Zaz - Sans Tsu Tsou (Live) [HDTV 1080i]

2011 Zaz - Sans Tsu Tsou (Live) [HDTV 1080i]
Отчёт DVDInfo/MediaInfo/BDInfo
Complete name : Zaz.ts
Format : MPEG-TS
File size : 5.10 GiB
Duration : 1h 24mn
Overall bit rate : 8 610 Kbps

Video
ID : 170 (0xAA)
Menu ID : 9330 (0x2472)
Format : AVC
Format/Info : Advanced Video Codec
Format profile : Main@L4.0
Format settings, CABAC : Yes
Format settings, ReFrames : 4 frames
Format settings, GOP : M=8, N=24
Codec ID : 27
Duration : 1h 24mn
Bit rate : 7 797 Kbps
Width : 1 920 pixels
Height : 1 080 pixels
Display aspect ratio : 16:9
Frame rate : 25.000 fps
Color space : YUV
Chroma subsampling : 4:2:0
Bit depth : 8 bits
Scan type : Interlaced
Scan order : Top Field First
Bits/(Pixel*Frame) : 0.150
Stream size : 4.62 GiB (91%)
Color primaries : BT.709-5, BT.1361, IEC 61966-2-4, SMPTE RP177
Transfer characteristics : BT.709-5, BT.1361
Matrix coefficients : BT.709-5, BT.1361, IEC 61966-2-4 709, SMPTE RP177

Audio
ID : 122 (0x7A)
Menu ID : 9330 (0x2472)
Format : AC-3
Format/Info : Audio Coding 3
Mode extension : CM (complete main)
Format settings, Endianness : Big
Codec ID : 6
Duration : 1h 24mn
Bit rate mode : Constant
Bit rate : 384 Kbps
Channel(s) : 6 channels
Channel positions : Front: L C R, Side: L R, LFE
Sampling rate : 48.0 KHz
Bit depth : 16 bits
Compression mode : Lossy
Delay relative to video : 6ms
Stream size : 233 MiB (4%)
Language : French
Any questions - support@pro-jazz.com. Есть вопросы - support@pro-jazz.com
181
Нет комментариев. Ваш будет первым!