Поиск

2011 Nik Bartsch's Ronin - Jazz Baltica [HDTV 720p]

2011 Nik Bartsch's Ronin - Jazz Baltica [HDTV 720p]
Состав:
  • NIK BÄRTSCH - piano, Rhodes
  • SHA - bass clarinet, contrabass clarinet, alto sax
  • THOMY JORDI - bass
  • ANDI PUPATO - percussion
  • KASPAR RAST - drums

Жанр: Progressive Jazz / Modern Creative / Mystical Mini
Продолжительность: 1:02:16
Год выпуска: 2011

Качество: HDTVRip 720p
Контейнер: MKV
Видео кодек: H.264
Аудио кодек: AC3
Видео: AVC, 1264x704, 16:9, 5 002 Kbps, 25 fps
Аудио: AC3, 448 kbps, 48 kHz, 2 ch

Треклист:

1. Modul 47
2. Modul 52
3. Modul 55
4. Modul 49_44
5. Modul 45
6. Modul 41_17

Отчёт DVDInfo/MediaInfo/BDInfo
General
Unique ID : 196786830479442444690718878110260317353 (0x940BC3D3A43204A3BC4839E9F9E6CCA9)
Complete name : K:\Nik_Baertschs_Ronin-Live_At_Jazz_Baltica_(2011)-720p-x264-2012-gFViD\nik_baertschs_ronin-live_at_jazz_baltica_(2011)-720p-x264-2012.mkv
Format : Matroska
Format version : Version 2
File size : 2.37 GiB
Duration : 1h 2mn
Overall bit rate : 5 451 Kbps
Encoded date : UTC 2012-06-24 14:37:24
Writing application : mkvmerge v5.5.0 ('Healer') built on Apr 6 2012 21:43:24
Writing library : libebml v1.2.3 + libmatroska v1.3.0

Video
ID : 1
Format : AVC
Format/Info : Advanced Video Codec
Format profile : High@L4.1
Format settings, CABAC : Yes
Format settings, ReFrames : 4 frames
Codec ID : V_MPEG4/ISO/AVC
Duration : 1h 2mn
Bit rate : 5 002 Kbps
Width : 1 264 pixels
Height : 704 pixels
Display aspect ratio : 16:9
Frame rate : 25.000 fps
Color space : YUV
Chroma subsampling : 4:2:0
Bit depth : 8 bits
Scan type : Progressive
Bits/(Pixel*Frame) : 0.225
Stream size : 2.13 GiB (90%)
Writing library : x264 core 125 r2200 999b753
Encoding settings : cabac=1 / ref=4 / deblock=1:0:0 / analyse=0x3:0x113 / me=umh / subme=9 / psy=1 / psy_rd=1.00:0.00 / mixed_ref=1 / me_range=32 / chroma_me=1 / trellis=1 / 8x8dct=1 / cqm=0 / deadzone=21,11 / fast_pskip=1 / chroma_qp_offset=-2 / threads=9 / lookahead_threads=1 / sliced_threads=0 / nr=0 / decimate=1 / interlaced=0 / bluray_compat=0 / constrained_intra=0 / bframes=3 / b_pyramid=2 / b_adapt=1 / b_bias=0 / direct=1 / weightb=1 / open_gop=0 / weightp=2 / keyint=250 / keyint_min=25 / scenecut=40 / intra_refresh=0 / rc_lookahead=40 / rc=2pass / mbtree=1 / bitrate=5002 / ratetol=1.0 / qcomp=0.60 / qpmin=0 / qpmax=69 / qpstep=4 / cplxblur=20.0 / qblur=0.5 / ip_ratio=1.40 / aq=1:1.00
Default : Yes
Forced : No

Audio
ID : 2
Format : AC-3
Format/Info : Audio Coding 3
Mode extension : CM (complete main)
Format settings, Endianness : Big
Codec ID : A_AC3
Duration : 1h 2mn
Bit rate mode : Constant
Bit rate : 448 Kbps
Channel(s) : 2 channels
Channel positions : Front: L R
Sampling rate : 48.0 KHz
Bit depth : 16 bits
Compression mode : Lossy
Stream size : 200 MiB (8%)
Default : Yes
Forced : No
Скриншоты видео
2011 Nik Bartsch's Ronin - Jazz Baltica [HDTV 720p] 02011 Nik Bartsch's Ronin - Jazz Baltica [HDTV 720p] 12011 Nik Bartsch's Ronin - Jazz Baltica [HDTV 720p] 22011 Nik Bartsch's Ronin - Jazz Baltica [HDTV 720p] 32011 Nik Bartsch's Ronin - Jazz Baltica [HDTV 720p] 42011 Nik Bartsch's Ronin - Jazz Baltica [HDTV 720p] 52011 Nik Bartsch's Ronin - Jazz Baltica [HDTV 720p] 62011 Nik Bartsch's Ronin - Jazz Baltica [HDTV 720p] 7
Download available for power users only.
449
Нет комментариев. Ваш будет первым!