Поиск

2008 Till Bronner - Avo Session [HDTV 1080i]

2008 Till Bronner - Avo Session [HDTV 1080i]
Состав:
  • TILL BRÖNNER - trumpet, keyboards, vocals
  • DANIEL CARLSSON - piano, keyboards
  • JOHAN LEIJONHUFVUD - guitar
  • DIETER ILG - bass
  • WOLFGANG HAFFNER - drums
  • ROLAND PEIL - percussion

Продолжительность: 55min
Год выпуска: 2008

Качество: HDTV 1080i
Контейнер: TS
Видео кодек: H.264
Аудио кодек: MP2
Видео: h.264,1920*1080i,~12Mbps,25fps
Аудио: MPEG Audio,256 Kbps,48.0 KHz,2ch

Треклист:

1. Bumpin'
2. In My Secret Life
3. Diavolo
4. Caf Com P o
5. A Distant Episode
6. No Breakfast
7. Your Way To Say Goodbye
8. Rising Star

Отчёт DVDInfo/MediaInfo/BDInfo
Complete name : E:\tor\20101201 1230 - Mezzo Live HD - Till Bronner.ts
Format : MPEG-TS
File size : 5.19 GiB
Duration : 55mn 13s
Overall bit rate : 13.5 Mbps
Video #323
ID : 323 (0x143)
Menu ID : 14103 (0x3717)
Format : AVC
Format/Info : Advanced Video Codec
Format profile : Main@L4.0
Format settings, CABAC : Yes
Format settings, ReFrames : 3 frames
Duration : 55mn 12s
Bit rate : 12.3 Mbps
Width : 1 920 pixels
Height : 1 080 pixels
Display aspect ratio : 16:9
Frame rate : 25.000 fps
Standard : Component
Resolution : 24 bits
Colorimetry : 4:2:0
Scan type : Interlaced
Scan order : Top Field First
Bits/(Pixel*Frame) : 0.237
Stream size : 4.73 GiB (91%)
colour_primaries : BT.709-5, BT.1361, IEC 61966-2-4, SMPTE RP177
transfer_characteristics : BT.709-5, BT.1361
matrix_coefficients : BT.709-5, BT.1361, IEC 61966-2-4 709, SMPTE RP177
Audio #403
ID : 403 (0x193)
Menu ID : 14103 (0x3717)
Format : MPEG Audio
Format version : Version 1
Format profile : Layer 2
Duration : 55mn 13s
Bit rate mode : Constant
Bit rate : 256 Kbps
Channel(s) : 2 channels
Sampling rate : 48.0 KHz
Resolution : 16 bits
Video delay : -975ms
Stream size : 101 MiB (2%)
Language : French
Language, more info : Clean effects
Скриншоты видео
2008 Till Bronner - Avo Session [HDTV 1080i] 02008 Till Bronner - Avo Session [HDTV 1080i] 12008 Till Bronner - Avo Session [HDTV 1080i] 22008 Till Bronner - Avo Session [HDTV 1080i] 3
По всем вопросам пишите личное сообщение пользователю M0p94ok.
810
Нет комментариев. Ваш будет первым!