Вы используете незарегистрированную версию компонента "Вкладки"!

Поиск

2012 Lizz Wright & Raul Midon - Estival Jazz Lugano [HDTV 720p]

2012 Lizz Wright & Raul Midon - Estival Jazz Lugano [HDTV 720p]
Состав:
  • Lizz Wright (voc)
  • Raul Midon (guit, voc)
  • Robin Macatangay (guit)
  • Brannen Temple (dr)
  • Richard Hammond (bass)

Жанр: jazz,soul
Продолжительность: 1h18m
Год выпуска: 2012

Качество: HDTV 720p
Контейнер: TS
Видео кодек: H.264
Аудио кодек: AC3
Видео: h.264 ,1280*720p,~10.0 Mbps,50fps
Аудио: Mpeg Audio ,192 Kbps,48.0 KHz,2ch
Аудио 2: Mpeg Audio ,192 Kbps,48.0 KHz,2ch
Аудио 3: AC-3,448 Kbps,48.0 KHz,6 channels

Отчёт DVDInfo/MediaInfo/BDInfo
E:\tor\20120705 2250 - RSI LA 2 HD - Estival Jazz 2012.ts
General #2134
ID : 2134
Complete name : E:\tor\20120705 2250 - RSI LA 2 HD - Estival Jazz 2012.ts
Format : MPEG-TS
File size : 6.36 GiB
Duration : 1h 18mn
Overall bit rate : 11.7 Mbps
Video #562
ID : 562 (0x232)
Menu ID : 951 (0x3B7)
Format : AVC
Format/Info : Advanced Video Codec
Format profile : High@L4.0
Format settings, CABAC : Yes
Format settings, ReFrames : 3 frames
Duration : 1h 18mn
Bit rate : 10.0 Mbps
Width : 1 280 pixels
Height : 720 pixels
Display aspect ratio : 16:9
Frame rate : 50.000 fps
Standard : Component
Resolution : 24 bits
Colorimetry : 4:2:0
Scan type : Progressive
Bits/(Pixel*Frame) : 0.217
Stream size : 5.47 GiB (86%)
colour_primaries : BT.709-5, BT.1361, IEC 61966-2-4, SMPTE RP177
transfer_characteristics : BT.709-5, BT.1361
matrix_coefficients : BT.709-5, BT.1361, IEC 61966-2-4 709, SMPTE RP177
Audio #563
ID : 563 (0x233)
Menu ID : 951 (0x3B7)
Format : MPEG Audio
Format version : Version 1
Format profile : Layer 2
Duration : 1h 18mn
Bit rate mode : Constant
Bit rate : 192 Kbps
Channel(s) : 2 channels
Sampling rate : 48.0 KHz
Resolution : 16 bits
Video delay : -649ms
Stream size : 107 MiB (2%)
Language : Italian
Language, more info : Clean effects
Audio #564
ID : 564 (0x234)
Menu ID : 951 (0x3B7)
Format : MPEG Audio
Format version : Version 1
Format profile : Layer 2
Duration : 1h 18mn
Bit rate mode : Constant
Bit rate : 192 Kbps
Channel(s) : 2 channels
Sampling rate : 48.0 KHz
Resolution : 16 bits
Video delay : -649ms
Stream size : 107 MiB (2%)
Language : English
Language, more info : Clean effects
Audio #565
ID : 565 (0x235)
Menu ID : 951 (0x3B7)
Format : AC-3
Format/Info : Audio Coding 3
Duration : 1h 18mn
Bit rate mode : Constant
Bit rate : 448 Kbps
Channel(s) : 6 channels
Channel positions : Front: L C R, Surround: L R, LFE
Sampling rate : 48.0 KHz
Video delay : -617ms
Stream size : 250 MiB (4%)
Language : Multiple languages
Language, more info : Clean effects
Text #567
ID : 567 (0x237)
Menu ID : 951 (0x3B7)
Format : Teletext
Language : Italian / Italian
Any questions - support@pro-jazz.com. Есть вопросы - support@pro-jazz.com
238
Нет комментариев. Ваш будет первым!