Вы используете незарегистрированную версию компонента "Вкладки"!

Поиск

2004 Lee Ritenour - Overtime [Blu-ray]

2004 Lee Ritenour - Overtime [Blu-ray]
Состав:

Lee Ritenour - guitar, Dave Grusin - Piano, Fender Rhodes, Ivan Lins - Vocals, Fender Rhodes, Patrice Rushen - Piano, Fender Rhodes, Synthesizer, Harvey Mason - Drums, Alex Acuna - Drums, Chris Botti - Trumpet, Ernie Watts - Tenor & Soprano Saxophone, Eric Marienthal - Alto & Tenor Saxophone, Flute, Anthony Jackson - Bass, Melvin Davis - Electric Bass, Dave Carpenter - Acoustic Bass, Barnaby Finch - Keyboards, Oscar Seaton - Drums, Kenya Hathaway - Vocals, Grady Harrell - Vocals, Steve Forman - Percussion

Оригинальное название: Lee Ritenour: Overtime
Жанр: Jazz, fusion, smooth jazz
Продолжительность: 02:32:41
Год выпуска: 2004/2012
Выпущено: Eagle Rock Entertainment

Качество: Blu-ray
Контейнер: BDMV
Видео кодек: AVC
Аудио кодек: DTS, PCM
Видео: MPEG-4 AVC 24978 kbps 1920*1080i / 29.970 fps / 16:9 / High Profile 4.1
Аудио#1: English DTS-HD MA 5.1 / 48 kHz / 2428 kbps / 16-bit (DTS Core: 5.1 / 48 kHz / 1509 kbps / 16-bit)
Аудио#2: English LPCM 2.0 / 48 kHz / 1536 kbps / 16-bit

Отчёт DVDInfo/MediaInfo/BDInfo
Disc Title: Lee Ritenour
Disc Size: 41 693 530 890 bytes
Protection: AACS
BD-Java: No
BDInfo: 0.5.6

Notes:

BDINFO HOME:
Cinema Squid
http://www.cinemasquid.com/blu-ray/tools/bdinfo

INCLUDES FORUMS REPORT FOR:
AVS Forum Blu-ray Audio and Video Specifications Thread
http://www.avsforum.com/avs-vb/showthread.php?t=1155731

********************
PLAYLIST: 00002.MPLS
********************

<--- BEGIN FORUMS PASTE --->
Код:
Total Video
Title Codec Length Movie Size Disc Size Bitrate Bitrate Main Audio Track Secondary Audio Track
----- ------ ------- -------------- -------------- ------- ------- ------------------ ---------------------
00002.MPLS AVC 2:32:41 35 225 568 960 41 693 530 890 30,76 24,98 DTS-HD Master 5.1 2428Kbps (48kHz/16-bit) LPCM 2.0 1536Kbps (48kHz/16-bit)
Код:
DISC INFO:

Disc Title: Lee Ritenour
Disc Size: 41 693 530 890 bytes
Protection: AACS
BD-Java: No
BDInfo: 0.5.6

PLAYLIST REPORT:

Name: 00002.MPLS
Length: 2:32:41 (h:m:s)
Size: 35 225 568 960 bytes
Total Bitrate: 30,76 Mbps

VIDEO:

Codec Bitrate Description
----- ------- -----------
MPEG-4 AVC Video 24978 kbps 1080i / 29,970 fps / 16:9 / High Profile 4.1

AUDIO:

Codec Language Bitrate Description
----- -------- ------- -----------
DTS-HD Master Audio English 2428 kbps 5.1 / 48 kHz / 2428 kbps / 16-bit (DTS Core: 5.1 / 48 kHz / 1509 kbps / 16-bit)
LPCM Audio English 1536 kbps 2.0 / 48 kHz / 1536 kbps / 16-bit

FILES:

Name Time In Length Size Total Bitrate
---- ------- ------ ---- -------------
00002.M2TS 0:00:00.000 2:31:00.484 35 106 670 272 30 998
00009.M2TS 2:31:00.484 0:01:40.767 118 898 688 9 439

CHAPTERS:

Number Time In Length Avg Video Rate Max 1-Sec Rate Max 1-Sec Time Max 5-Sec Rate Max 5-Sec Time Max 10Sec Rate Max 10Sec Time Avg Frame Size Max Frame Size Max Frame Time
------ ------- ------ -------------- -------------- -------------- -------------- -------------- -------------- -------------- -------------- -------------- --------------
1 0:00:00.000 0:08:13.459 25 202 kbps 33 997 kbps 00:07:45.398 31 455 kbps 00:02:27.113 30 063 kbps 00:06:18.010 105 105 bytes 338 731 bytes 00:06:29.822
2 0:08:13.459 0:09:24.630 23 241 kbps 33 985 kbps 00:11:42.068 29 116 kbps 00:16:55.381 28 525 kbps 00:16:53.912 96 933 bytes 337 674 bytes 00:10:43.109
3 0:17:38.090 0:01:44.871 25 349 kbps 31 618 kbps 00:18:43.655 29 581 kbps 00:18:41.687 28 957 kbps 00:18:37.049 105 727 bytes 336 991 bytes 00:19:08.080
4 0:19:22.961 0:06:28.020 25 624 kbps 33 993 kbps 00:23:39.317 31 542 kbps 00:23:35.313 30 627 kbps 00:23:32.444 106 875 bytes 339 880 bytes 00:25:10.542
5 0:25:50.982 0:01:28.321 25 243 kbps 33 927 kbps 00:27:18.269 30 054 kbps 00:27:11.696 29 467 kbps 00:26:46.104 105 284 bytes 339 123 bytes 00:26:44.336
6 0:27:19.304 0:05:28.494 29 409 kbps 33 999 kbps 00:27:24.909 33 361 kbps 00:27:19.704 32 637 kbps 00:27:19.537 122 660 bytes 339 477 bytes 00:30:06.905
7 0:32:47.799 0:00:48.381 24 826 kbps 32 653 kbps 00:32:49.500 30 818 kbps 00:33:05.183 29 488 kbps 00:33:00.378 103 545 bytes 334 041 bytes 00:32:56.207
8 0:33:36.180 0:06:36.729 27 106 kbps 33 999 kbps 00:37:41.425 31 199 kbps 00:38:10.554 30 818 kbps 00:38:05.883 113 054 bytes 337 475 bytes 00:38:21.499
9 0:40:12.910 0:06:48.775 28 033 kbps 33 979 kbps 00:42:47.298 31 212 kbps 00:42:46.397 30 025 kbps 00:44:02.139 116 922 bytes 339 931 bytes 00:45:55.786
10 0:47:01.685 0:00:41.441 28 405 kbps 32 533 kbps 00:47:23.240 29 789 kbps 00:47:26.243 29 370 kbps 00:47:28.512 118 474 bytes 337 358 bytes 00:47:34.117
11 0:47:43.126 0:07:15.001 28 233 kbps 33 998 kbps 00:51:03.160 32 446 kbps 00:51:26.516 30 875 kbps 00:51:00.157 117 753 bytes 338 829 bytes 00:49:04.374
12 0:54:58.128 0:00:35.835 27 107 kbps 33 993 kbps 00:55:31.961 29 183 kbps 00:55:28.725 28 138 kbps 00:55:23.920 113 059 bytes 332 501 bytes 00:54:59.929
13 0:55:33.963 0:05:16.082 24 322 kbps 33 999 kbps 00:55:35.765 32 916 kbps 00:55:33.963 30 035 kbps 01:00:13.309 101 441 bytes 339 315 bytes 00:57:25.542
14 1:00:50.046 0:00:36.036 24 557 kbps 27 331 kbps 01:01:15.605 25 785 kbps 01:01:13.903 25 520 kbps 01:01:07.797 102 425 bytes 317 387 bytes 01:01:16.472
15 1:01:26.082 0:08:32.612 24 649 kbps 33 996 kbps 01:04:22.525 30 825 kbps 01:04:18.521 29 743 kbps 01:04:20.223 102 807 bytes 338 875 bytes 01:05:31.027
16 1:09:58.694 0:08:06.018 21 947 kbps 33 825 kbps 01:16:34.189 29 212 kbps 01:16:40.996 28 568 kbps 01:16:34.189 91 538 bytes 334 906 bytes 01:11:43.732
17 1:18:04.713 0:01:39.365 23 174 kbps 29 177 kbps 01:19:19.688 27 342 kbps 01:19:19.287 26 610 kbps 01:19:14.950 96 654 bytes 324 950 bytes 01:18:05.313
18 1:19:44.079 0:04:07.180 23 434 kbps 33 976 kbps 01:22:49.998 29 993 kbps 01:22:46.628 28 435 kbps 01:22:46.928 97 741 bytes 336 384 bytes 01:22:56.237
19 1:23:51.259 0:00:30.630 27 391 kbps 29 778 kbps 01:23:52.093 28 365 kbps 01:24:05.006 27 897 kbps 01:24:00.602 114 242 bytes 335 158 bytes 01:23:53.661
20 1:24:21.890 0:08:27.006 25 326 kbps 33 981 kbps 01:31:31.085 31 097 kbps 01:29:53.287 29 640 kbps 01:29:53.888 105 629 bytes 338 639 bytes 01:28:16.324
21 1:32:48.896 0:04:58.231 25 249 kbps 33 988 kbps 01:32:49.096 31 060 kbps 01:36:37.691 29 859 kbps 01:36:33.053 105 308 bytes 338 675 bytes 01:32:56.704
22 1:37:47.127 0:01:55.982 22 314 kbps 29 798 kbps 01:38:42.349 28 260 kbps 01:38:40.514 27 691 kbps 01:38:35.609 93 067 bytes 332 090 bytes 01:38:51.959
23 1:39:43.110 0:08:41.854 24 719 kbps 33 998 kbps 01:42:04.351 30 613 kbps 01:47:59.272 29 412 kbps 01:41:57.311 103 100 bytes 338 791 bytes 01:42:30.110
24 1:48:24.965 0:02:38.658 24 761 kbps 32 156 kbps 01:48:47.687 30 212 kbps 01:48:58.632 29 866 kbps 01:48:55.462 103 274 bytes 336 363 bytes 01:49:10.076
25 1:51:03.623 0:05:53.186 22 585 kbps 33 913 kbps 01:53:38.578 30 098 kbps 01:54:48.748 28 565 kbps 01:54:47.480 94 200 bytes 337 629 bytes 01:55:17.543
26 1:56:56.809 0:08:23.169 23 515 kbps 33 999 kbps 02:03:41.113 30 565 kbps 01:58:23.529 29 407 kbps 01:58:18.324 98 076 bytes 339 418 bytes 02:03:30.536
27 2:05:19.979 0:05:09.909 22 493 kbps 33 985 kbps 02:08:42.848 28 455 kbps 02:10:07.466 27 143 kbps 02:08:33.872 93 813 bytes 337 394 bytes 02:08:11.950
28 2:10:29.888 0:02:39.058 27 315 kbps 33 998 kbps 02:11:45.297 31 771 kbps 02:11:43.028 30 415 kbps 02:11:40.859 113 926 bytes 336 039 bytes 02:12:22.301
29 2:13:08.947 0:10:29.161 25 583 kbps 34 000 kbps 02:16:16.201 32 468 kbps 02:13:14.987 30 640 kbps 02:23:27.131 106 702 bytes 339 511 bytes 02:14:38.937
30 2:23:38.109 0:01:49.142 26 113 kbps 33 975 kbps 02:23:45.116 31 135 kbps 02:23:42.880 29 826 kbps 02:23:42.213 108 915 bytes 333 067 bytes 02:25:25.450
31 2:25:27.251 0:07:14.000 22 919 kbps 33 997 kbps 02:28:43.080 32 561 kbps 02:30:29.320 31 546 kbps 02:30:26.617 95 590 bytes 339 722 bytes 02:30:16.007

STREAM DIAGNOSTICS:

File PID Type Codec Language Seconds Bitrate Bytes Packets
---- --- ---- ----- -------- -------------- -------------- ------------- -----
00002.M2TS 4113 (0x1011) 0x1B AVC 9161,586 24 942 28 563 261 006 155 533 006
00002.M2TS 4352 (0x1100) 0x80 LPCM eng (English) 9161,586 1 542 1 766 373 832 10 994 028
00002.M2TS 4353 (0x1101) 0x86 DTS-HD MA eng (English) 9161,586 2 445 2 800 523 472 16 656 013
00009.M2TS 4113 (0x1011) 0x1B AVC 100,701 8 953 112 692 354 615 860
<---- END FORUMS PASTE ---->

QUICK SUMMARY:

Disc Title: Lee Ritenour
Disc Size: 41 693 530 890 bytes
Protection: AACS
BD-Java: No
Playlist: 00002.MPLS
Size: 35 225 568 960 bytes
Length: 2:32:41
Total Bitrate: 30,76 Mbps
Video: MPEG-4 AVC Video / 24978 kbps / 1080i / 29,970 fps / 16:9 / High Profile 4.1
Audio: English / DTS-HD Master Audio / 5.1 / 48 kHz / 2428 kbps / 16-bit (DTS Core: 5.1 / 48 kHz / 1509 kbps / 16-bit)
Audio: English / LPCM Audio / 2.0 / 48 kHz / 1536 kbps / 16-bit

********************
PLAYLIST: 00003.MPLS
********************

<--- BEGIN FORUMS PASTE --->
Код:
Total Video
Title Codec Length Movie Size Disc Size Bitrate Bitrate Main Audio Track Secondary Audio Track
----- ------ ------- -------------- -------------- ------- ------- ------------------ ---------------------
00003.MPLS AVC 0:26:02 6 078 756 864 41 693 530 890 31,12 24,96 DTS-HD Master 5.1 2773Kbps (48kHz/16-bit) LPCM 2.0 1536Kbps (48kHz/16-bit)
Код:
DISC INFO:

Disc Title: Lee Ritenour
Disc Size: 41 693 530 890 bytes
Protection: AACS
BD-Java: No
BDInfo: 0.5.6

PLAYLIST REPORT:

Name: 00003.MPLS
Length: 0:26:02 (h:m:s)
Size: 6 078 756 864 bytes
Total Bitrate: 31,12 Mbps

VIDEO:

Codec Bitrate Description
----- ------- -----------
MPEG-4 AVC Video 24955 kbps 1080i / 29,970 fps / 16:9 / High Profile 4.1

AUDIO:

Codec Language Bitrate Description
----- -------- ------- -----------
DTS-HD Master Audio English 2773 kbps 5.1 / 48 kHz / 2773 kbps / 16-bit (DTS Core: 5.1 / 48 kHz / 1509 kbps / 16-bit)
LPCM Audio English 1536 kbps 2.0 / 48 kHz / 1536 kbps / 16-bit

FILES:

Name Time In Length Size Total Bitrate
---- ------- ------ ---- -------------
00003.M2TS 0:00:00.000 0:26:02.861 6 078 756 864 31 116

CHAPTERS:

Number Time In Length Avg Video Rate Max 1-Sec Rate Max 1-Sec Time Max 5-Sec Rate Max 5-Sec Time Max 10Sec Rate Max 10Sec Time Avg Frame Size Max Frame Size Max Frame Time
------ ------- ------ -------------- -------------- -------------- -------------- -------------- -------------- -------------- -------------- -------------- --------------
1 0:00:00.000 0:09:53.392 26 859 kbps 33 999 kbps 00:01:17.977 33 547 kbps 00:05:10.810 32 556 kbps 00:05:08.541 112 017 bytes 338 162 bytes 00:02:29.149
2 0:09:53.392 0:03:53.600 28 146 kbps 33 995 kbps 00:12:11.764 32 713 kbps 00:12:22.675 31 583 kbps 00:12:52.872 117 392 bytes 338 664 bytes 00:12:54.707
3 0:13:46.992 0:03:54.200 18 535 kbps 30 220 kbps 00:15:36.101 27 423 kbps 00:13:46.992 24 432 kbps 00:14:40.946 77 308 bytes 332 822 bytes 00:14:49.722
4 0:17:41.193 0:08:21.667 24 215 kbps 34 000 kbps 00:20:18.884 33 365 kbps 00:21:50.309 32 609 kbps 00:21:45.370 101 006 bytes 338 203 bytes 00:21:50.375

STREAM DIAGNOSTICS:

File PID Type Codec Language Seconds Bitrate Bytes Packets
---- --- ---- ----- -------- -------------- -------------- ------------- -----
00003.M2TS 4113 (0x1011) 0x1B AVC 1562,728 24 957 4 875 219 492 26 546 611
00003.M2TS 4352 (0x1100) 0x80 LPCM eng (English) 1562,728 1 543 301 320 372 1 875 438
00003.M2TS 4353 (0x1101) 0x86 DTS-HD MA eng (English) 1562,728 2 773 541 661 956 3 185 747
<---- END FORUMS PASTE ---->

QUICK SUMMARY:

Disc Title: Lee Ritenour
Disc Size: 41 693 530 890 bytes
Protection: AACS
BD-Java: No
Playlist: 00003.MPLS
Size: 6 078 756 864 bytes
Length: 0:26:02
Total Bitrate: 31,12 Mbps
Video: MPEG-4 AVC Video / 24955 kbps / 1080i / 29,970 fps / 16:9 / High Profile 4.1
Audio: English / DTS-HD Master Audio / 5.1 / 48 kHz / 2773 kbps / 16-bit (DTS Core: 5.1 / 48 kHz / 1509 kbps / 16-bit)
Audio: English / LPCM Audio / 2.0 / 48 kHz / 1536 kbps / 16-bit
Any questions - support@pro-jazz.com. Есть вопросы - support@pro-jazz.com
374
21:18