Поиск

2011 Amy Winehouse - When Amy Came to Dingle [HDTV 720p]

2011 Amy Winehouse - When Amy Came to Dingle [HDTV 720p]
Треклист:

1. Tears Dry On Their Own
Interview # 1
2. I'm No Good
Interview # 2
Interview # 3
3. Love Is A Loosing Game
Interview # 4
4. Back To Black
Interview # 5
5. Me & Mr Jones
6. Rehab

Жанр: Soul, Jazz
Продолжительность: 00:45:52
Год выпуска: 2011

Качество: HDTVRip 720p
Контейнер: MP4
Видео кодек: MPEG4
Аудио кодек: AAC
Видео: MPEG-4 ; 1280x720 ; 5 493 Kbps; 25.000 fps
Аудио: AAC ; 256 Kbps ; 48.0 KHz ; 2 ch

Описание:

Выступление и интервью Amy Winehouse в церкви St. James, Dingle, графства Kerry в Ирландии в 2006г. для передачи Other Voices

Отчёт DVDInfo/MediaInfo/BDInfo
Complete name :Amy Winehouse - Other Voices Special.mp4
Format : MPEG-4
Format profile : Base Media
Codec ID : isom
File size : 1.84 GiB
Duration : 45mn 52s
Overall bit rate : 5 754 Kbps
Track name/Position : 1
Track name/Total : 0
Recorded date : 2012
Writing application : Lavf53.19.0
Cover : Yes

Video
ID : 1
Format : MPEG-4 Visual
Format profile : Simple@L1
Format settings, BVOP : No
Format settings, QPel : No
Format settings, GMC : No warppoints
Format settings, Matrix : Default (H.263)
Codec ID : 20
Duration : 45mn 52s
Bit rate mode : Variable
Bit rate : 5 493 Kbps
Maximum bit rate : 8 000 Kbps
Width : 1 280 pixels
Height : 720 pixels
Display aspect ratio : 16:9
Frame rate mode : Constant
Frame rate : 25.000 fps
Color space : YUV
Chroma subsampling : 4:2:0
Bit depth : 8 bits
Scan type : Progressive
Compression mode : Lossy
Bits/(Pixel*Frame) : 0.238
Stream size : 1.76 GiB (95%)
Writing library : Lavc53.28.0

Audio
ID : 2
Format : AAC
Format/Info : Advanced Audio Codec
Format profile : LC
Codec ID : 40
Duration : 45mn 51s
Bit rate mode : Constant
Bit rate : 256 Kbps
Channel(s) : 2 channels
Channel positions : Front: L R
Sampling rate : 48.0 KHz
Compression mode : Lossy
Stream size : 84.0 MiB (4%)
Скриншоты видео
2011 Amy Winehouse - When Amy Came to Dingle [HDTV 720p] 02011 Amy Winehouse - When Amy Came to Dingle [HDTV 720p] 12011 Amy Winehouse - When Amy Came to Dingle [HDTV 720p] 2
Download available for power users only.
403
Нет комментариев. Ваш будет первым!