Поиск

2010 Wayne Shorter 4tet - Jazz a Vienne [HDTV 1080i]

2010 Wayne Shorter 4tet - Jazz a Vienne [HDTV 1080i]
Состав:
Треклист:

1. Zero Gravity (Wayne Shorter, Danilo Perez, John Patitucci, Brian Blade)
2. Lotus (Wayne Shorter)
3. Myrrh (Wayne Shorter)
4. I Go My Way by Myself (Wayne Shorter)
5. Joy Rider (Wayne Shorter)
6. Adventures Aboard the Golden Mean (Wayne Shorter)

Жанр: Jazz
Продолжительность: 52min
Год выпуска: 2010

Качество: HDTV 1080i
Контейнер: TS
Видео кодек: H.264
Аудио кодек: MP2
Видео: H.264,1 920*1080i,~10.7 Mbps,25fps
Аудио: Mpeg-Audio,256 Kbps,48.0 KHz,2 channels

Отчёт DVDInfo/MediaInfo/BDInfo
General #E
ID : E
Complete name : E:\tor\20120623 1416 - Mezzo Live HD Wayne Shorter.ts
Format : MPEG-TS
File size : 4.32 GiB
Duration : 52mn 22s
Overall bit rate : 11.8 Mbps
Video #323
ID : 323 (0x143)
Menu ID : 14103 (0x3717)
Format : AVC
Format/Info : Advanced Video Codec
Format profile : Main@L4.0
Format settings, CABAC : Yes
Format settings, ReFrames : 3 frames
Duration : 52mn 22s
Bit rate : 10.7 Mbps
Width : 1 920 pixels
Height : 1 080 pixels
Display aspect ratio : 16:9
Frame rate : 25.000 fps
Standard : Component
Resolution : 24 bits
Colorimetry : 4:2:0
Scan type : Interlaced
Scan order : Top Field First
Bits/(Pixel*Frame) : 0.207
Stream size : 3.93 GiB (91%)
colour_primaries : BT.709-5, BT.1361, IEC 61966-2-4, SMPTE RP177
transfer_characteristics : BT.709-5, BT.1361
matrix_coefficients : BT.709-5, BT.1361, IEC 61966-2-4 709, SMPTE RP177
Audio #403
ID : 403 (0x193)
Menu ID : 14103 (0x3717)
Format : MPEG Audio
Format version : Version 1
Format profile : Layer 2
Duration : 52mn 22s
Bit rate mode : Constant
Bit rate : 256 Kbps
Channel(s) : 2 channels
Sampling rate : 48.0 KHz
Resolution : 16 bits
Video delay : -913ms
Stream size : 95.9 MiB (2%)
Language : French
Language, more info : Clean effects
Скриншоты видео
2010 Wayne Shorter 4tet - Jazz a Vienne [HDTV 1080i] 02010 Wayne Shorter 4tet - Jazz a Vienne [HDTV 1080i] 12010 Wayne Shorter 4tet - Jazz a Vienne [HDTV 1080i] 22010 Wayne Shorter 4tet - Jazz a Vienne [HDTV 1080i] 3
Any questions - support@pro-jazz.com
To become a power user - read FAQ.
689
Нет комментариев. Ваш будет первым!