Вы используете незарегистрированную версию компонента "Вкладки"!

Поиск

2008 Yellowjackets - The Paris Concert at New Morning [Blu-ray]

2008 Yellowjackets - The Paris Concert at New Morning [Blu-ray]
Состав:
  • Bob Mintzer - sax, Akai EWI
  • Jimmy Haslip - bass
  • Russell Ferrante - keyboards
  • Marcus Baylor - drums, percussion

Жанр: Fusion, Smooth Jazz
Продолжительность: 01:30:02
Год выпуска: 2008

Качество: Blu-ray
Контейнер: BDMV
Видео кодек: VC-1
Аудио кодек: DTS-HD, LPCM, Dolby Digital
Видео: VC-1 Video / 15914 kbps / 1080i / 29,970 fps / 16:9 / Advanced Profile 3
Аудио 1: English / DTS-HD Master Audio / 5.1 / 48 kHz / 1917 kbps / 16-bit (DTS Core: 5.1 / 48 kHz / 1509 kbps / 16-bit)
Аудио 2: English / LPCM Audio / 5.1 / 48 kHz / 4608 kbps / 16-bit
Аудио 3: English / Dolby Digital Audio / 2.0 / 48 kHz / 448 kbps

Отчёт DVDInfo/MediaInfo/BDInfo
Disc Title: Yellowjackets__New_Morning__The_Paris_Concert__Blu-Ray
Disc Size: 21 652 135 107 bytes
Protection: AACS
BD-Java: No
BDInfo: 0.5.8

Notes:

BDINFO HOME:
Cinema Squid
http://www.cinemasquid.com/blu-ray/tools/bdinfo

INCLUDES FORUMS REPORT FOR:
AVS Forum Blu-ray Audio and Video Specifications Thread
http://www.avsforum.com/avs-vb/showthread.php?t=1155731

WARNING: Report is incomplete because: Scan is still running.

********************
PLAYLIST: 00001.MPLS
********************

<--- BEGIN FORUMS PASTE --->
Код:
Total Video
Title Codec Length Movie Size Disc Size Bitrate Bitrate Main Audio Track Secondary Audio Track
----- ------ ------- -------------- -------------- ------- ------- ------------------ ---------------------
00001.MPLS VC-1 1:30:03 25 886 400 21 652 135 107 0,04 15,91 DTS-HD Master 5.1 1917Kbps (48kHz/16-bit) LPCM 5.1 4608Kbps (48kHz/16-bit)
Код:
DISC INFO:

Disc Title: Yellowjackets__New_Morning__The_Paris_Concert__Blu-Ray
Disc Size: 21 652 135 107 bytes
Protection: AACS
BD-Java: No
BDInfo: 0.5.8

PLAYLIST REPORT:

Name: 00001.MPLS
Length: 1:30:03.698 (h:m:s.ms)
Size: 25 886 400 bytes
Total Bitrate: 0,04 Mbps

VIDEO:

Codec Bitrate Description
----- ------- -----------
VC-1 Video 15914 kbps 1080i / 29,970 fps / 16:9 / Advanced Profile 3

AUDIO:

Codec Language Bitrate Description
----- -------- ------- -----------
DTS-HD Master Audio English 1917 kbps 5.1 / 48 kHz / 1917 kbps / 16-bit (DTS Core: 5.1 / 48 kHz / 1509 kbps / 16-bit)
LPCM Audio English 4608 kbps 5.1 / 48 kHz / 4608 kbps / 16-bit
Dolby Digital Audio English 448 kbps 2.0 / 48 kHz / 448 kbps

FILES:

Name Time In Length Size Total Bitrate
---- ------- ------ ---- -------------
00001.M2TS 0:00:00.000 1:30:03.698 25 886 400 24 269

CHAPTERS:

Number Time In Length Avg Video Rate Max 1-Sec Rate Max 1-Sec Time Max 5-Sec Rate Max 5-Sec Time Max 10Sec Rate Max 10Sec Time Avg Frame Size Max Frame Size Max Frame Time
------ ------- ------ -------------- -------------- -------------- -------------- -------------- -------------- -------------- -------------- -------------- --------------
1 0:00:00.000 0:05:41.207 454 kbps 19 808 kbps 00:00:07.340 18 962 kbps 00:00:04.404 0 kbps 00:00:00.000 67 714 bytes 159 472 bytes 00:00:08.341
2 0:05:41.207 0:07:02.088 0 kbps 0 kbps 00:00:00.000 0 kbps 00:00:00.000 0 kbps 00:00:00.000 0 bytes 0 bytes 00:00:00.000
3 0:12:43.295 0:08:35.515 0 kbps 0 kbps 00:00:00.000 0 kbps 00:00:00.000 0 kbps 00:00:00.000 0 bytes 0 bytes 00:00:00.000
4 0:21:18.810 0:09:50.590 0 kbps 0 kbps 00:00:00.000 0 kbps 00:00:00.000 0 kbps 00:00:00.000 0 bytes 0 bytes 00:00:00.000
5 0:31:09.400 0:15:07.139 0 kbps 0 kbps 00:00:00.000 0 kbps 00:00:00.000 0 kbps 00:00:00.000 0 bytes 0 bytes 00:00:00.000
6 0:46:16.540 0:07:15.034 0 kbps 0 kbps 00:00:00.000 0 kbps 00:00:00.000 0 kbps 00:00:00.000 0 bytes 0 bytes 00:00:00.000
7 0:53:31.575 0:04:54.460 0 kbps 0 kbps 00:00:00.000 0 kbps 00:00:00.000 0 kbps 00:00:00.000 0 bytes 0 bytes 00:00:00.000
8 0:58:26.035 0:02:20.139 0 kbps 0 kbps 00:00:00.000 0 kbps 00:00:00.000 0 kbps 00:00:00.000 0 bytes 0 bytes 00:00:00.000
9 1:00:46.175 0:08:36.349 0 kbps 0 kbps 00:00:00.000 0 kbps 00:00:00.000 0 kbps 00:00:00.000 0 bytes 0 bytes 00:00:00.000
10 1:09:22.525 0:04:49.455 0 kbps 0 kbps 00:00:00.000 0 kbps 00:00:00.000 0 kbps 00:00:00.000 0 bytes 0 bytes 00:00:00.000
11 1:14:11.980 0:07:42.128 0 kbps 0 kbps 00:00:00.000 0 kbps 00:00:00.000 0 kbps 00:00:00.000 0 bytes 0 bytes 00:00:00.000
12 1:21:54.109 0:08:09.589 0 kbps 0 kbps 00:00:00.000 0 kbps 00:00:00.000 0 kbps 00:00:00.000 0 bytes 0 bytes 00:00:00.000

STREAM DIAGNOSTICS:

File PID Type Codec Language Seconds Bitrate Bytes Packets
---- --- ---- ----- -------- -------------- -------------- ------------- -----
00001.M2TS 4113 (0x1011) 0xEA VC-1 9,476 16 349 19 366 078 105 415
00001.M2TS 4352 (0x1100) 0x86 DTS-HD MA eng (English) 9,476 2 007 2 376 999 14 278
00001.M2TS 4353 (0x1101) 0x80 LPCM eng (English) 9,476 4 631 5 485 368 30 432
00001.M2TS 4354 (0x1102) 0x81 AC3 eng (English) 9,476 423 501 055 2 796
<---- END FORUMS PASTE ---->

QUICK SUMMARY:

Disc Title: Yellowjackets__New_Morning__The_Paris_Concert__Blu-Ray
Disc Size: 21 652 135 107 bytes
Protection: AACS
BD-Java: No
Playlist: 00001.MPLS
Size: 25 886 400 bytes
Length: 1:30:03.698
Total Bitrate: 0,04 Mbps
Video: VC-1 Video / 15914 kbps / 1080i / 29,970 fps / 16:9 / Advanced Profile 3
Audio: English / DTS-HD Master Audio / 5.1 / 48 kHz / 1917 kbps / 16-bit (DTS Core: 5.1 / 48 kHz / 1509 kbps / 16-bit)
Audio: English / LPCM Audio / 5.1 / 48 kHz / 4608 kbps / 16-bit
Audio: English / Dolby Digital Audio / 2.0 / 48 kHz / 448 kbps

********************
PLAYLIST: 00002.MPLS
********************

<--- BEGIN FORUMS PASTE --->
Код:
Total Video
Title Codec Length Movie Size Disc Size Bitrate Bitrate Main Audio Track Secondary Audio Track
----- ------ ------- -------------- -------------- ------- ------- ------------------ ---------------------
00002.MPLS VC-1 0:07:42 0 21 652 135 107 0,00 0,00 DD AC3 2.0 448Kbps
Код:
DISC INFO:

Disc Title: Yellowjackets__New_Morning__The_Paris_Concert__Blu-Ray
Disc Size: 21 652 135 107 bytes
Protection: AACS
BD-Java: No
BDInfo: 0.5.8

PLAYLIST REPORT:

Name: 00002.MPLS
Length: 0:07:42.495 (h:m:s.ms)
Size: 0 bytes
Total Bitrate: 0,00 Mbps

VIDEO:

Codec Bitrate Description
----- ------- -----------
VC-1 Video 0 kbps 1080i / 29,970 fps / 16:9 / Advanced Profile 3

AUDIO:

Codec Language Bitrate Description
----- -------- ------- -----------
Dolby Digital Audio German 448 kbps 2.0 / 48 kHz / 448 kbps
Dolby Digital Audio German 448 kbps 2.0 / 48 kHz / 448 kbps
Dolby Digital Audio German 448 kbps 2.0 / 48 kHz / 448 kbps

FILES:

Name Time In Length Size Total Bitrate
---- ------- ------ ---- -------------
00003.M2TS 0:00:00.000 0:07:42.495 0 0

CHAPTERS:

Number Time In Length Avg Video Rate Max 1-Sec Rate Max 1-Sec Time Max 5-Sec Rate Max 5-Sec Time Max 10Sec Rate Max 10Sec Time Avg Frame Size Max Frame Size Max Frame Time
------ ------- ------ -------------- -------------- -------------- -------------- -------------- -------------- -------------- -------------- -------------- --------------
1 0:00:00.000 0:07:42.495 0 kbps 0 kbps 00:00:00.000 0 kbps 00:00:00.000 0 kbps 00:00:00.000 0 bytes 0 bytes 00:00:00.000

STREAM DIAGNOSTICS:

File PID Type Codec Language Seconds Bitrate Bytes Packets
---- --- ---- ----- -------- -------------- -------------- ------------- -----
00003.M2TS 4113 (0x1011) 0xEA VC-1 0 0 0 0
00003.M2TS 4352 (0x1100) 0x81 AC3 deu (German) 0 0 0 0
00003.M2TS 4353 (0x1101) 0x81 AC3 deu (German) 0 0 0 0
00003.M2TS 4354 (0x1102) 0x81 AC3 deu (German) 0 0 0 0
<---- END FORUMS PASTE ---->

QUICK SUMMARY:

Disc Title: Yellowjackets__New_Morning__The_Paris_Concert__Blu-Ray
Disc Size: 21 652 135 107 bytes
Protection: AACS
BD-Java: No
Playlist: 00002.MPLS
Size: 0 bytes
Length: 0:07:42.495
Total Bitrate: 0,00 Mbps
Video: VC-1 Video / 0 kbps / 1080i / 29,970 fps / 16:9 / Advanced Profile 3
Audio: German / Dolby Digital Audio / 2.0 / 48 kHz / 448 kbps
Audio: German / Dolby Digital Audio / 2.0 / 48 kHz / 448 kbps
Audio: German / Dolby Digital Audio / 2.0 / 48 kHz / 448 kbps

********************
PLAYLIST: 00000.MPLS
********************

<--- BEGIN FORUMS PASTE --->
Код:
Total Video
Title Codec Length Movie Size Disc Size Bitrate Bitrate Main Audio Track Secondary Audio Track
----- ------ ------- -------------- -------------- ------- ------- ------------------ ---------------------
00000.MPLS VC-1 0:00:34 128 311 296 21 652 135 107 29,33 25,64 DTS-HD Master 5.1 2171Kbps (48kHz/16-bit)
Код:
DISC INFO:

Disc Title: Yellowjackets__New_Morning__The_Paris_Concert__Blu-Ray
Disc Size: 21 652 135 107 bytes
Protection: AACS
BD-Java: No
BDInfo: 0.5.8

PLAYLIST REPORT:

Name: 00000.MPLS
Length: 0:00:34.993 (h:m:s.ms)
Size: 128 311 296 bytes
Total Bitrate: 29,33 Mbps

VIDEO:

Codec Bitrate Description
----- ------- -----------
VC-1 Video 25637 kbps 1080p / 23,976 fps / 16:9 / Advanced Profile 3

AUDIO:

Codec Language Bitrate Description
----- -------- ------- -----------
DTS-HD Master Audio German 2171 kbps 5.1 / 48 kHz / 2171 kbps / 16-bit (DTS Core: 5.1 / 48 kHz / 1509 kbps / 16-bit)

FILES:

Name Time In Length Size Total Bitrate
---- ------- ------ ---- -------------
00000.M2TS 0:00:00.000 0:00:34.993 128 311 296 29 334

CHAPTERS:

Number Time In Length Avg Video Rate Max 1-Sec Rate Max 1-Sec Time Max 5-Sec Rate Max 5-Sec Time Max 10Sec Rate Max 10Sec Time Avg Frame Size Max Frame Size Max Frame Time
------ ------- ------ -------------- -------------- -------------- -------------- -------------- -------------- -------------- -------------- -------------- --------------
1 0:00:00.000 0:00:34.993 25 637 kbps 55 370 kbps 00:00:27.235 41 692 kbps 00:00:26.985 38 520 kbps 00:00:24.232 135 435 bytes 621 354 bytes 00:00:15.014

STREAM DIAGNOSTICS:

File PID Type Codec Language Seconds Bitrate Bytes Packets
---- --- ---- ----- -------- -------------- -------------- ------------- -----
00000.M2TS 4113 (0x1011) 0xEA VC-1 34,868 25 729 112 139 935 609 968
00000.M2TS 4352 (0x1100) 0x86 DTS-HD MA deu (German) 34,868 2 179 9 498 308 57 117
<---- END FORUMS PASTE ---->

QUICK SUMMARY:

Disc Title: Yellowjackets__New_Morning__The_Paris_Concert__Blu-Ray
Disc Size: 21 652 135 107 bytes
Protection: AACS
BD-Java: No
Playlist: 00000.MPLS
Size: 128 311 296 bytes
Length: 0:00:34.993
Total Bitrate: 29,33 Mbps
Video: VC-1 Video / 25637 kbps / 1080p / 23,976 fps / 16:9 / Advanced Profile 3
Audio: German / DTS-HD Master Audio / 5.1 / 48 kHz / 2171 kbps / 16-bit (DTS Core: 5.1 / 48 kHz / 1509 kbps / 16-bit)
Any questions - support@pro-jazz.com. Есть вопросы - support@pro-jazz.com
377
12:37