Вы используете незарегистрированную версию компонента "Вкладки"!

Поиск

2012 Omar Sosa & Paolo Fresu - Live At Blue Note Milano [HDTV 1080i]

2012 Omar Sosa & Paolo Fresu - Live At Blue Note Milano [HDTV 1080i]
Состав:
  • Paolo Fresu - trumpet, flugelhorn
  • Omar Sosa - piano, Fender Rhodes piano, percussion, sampler, vocals
Описание:

Продолжительность: 56min17s
Год выпуска: 2012

Качество: HDTV 1080i
Контейнер: TS
Видео кодек: H.264
Аудио кодек: MP2
Видео: h.264,1080i,6 989 Kbps,25fps
Аудио: Mpeg Audio,256 Kbps,48.0 KHz,2 channels

pic

Отчёт DVDInfo/MediaInfo/BDInfo
Complete name : \\20120531 1530 - Mezzo Live HD - ÄÆÀÇ.ts
Format : MPEG-TS
File size : 3.00 GiB
Duration : 56mn 18s
Overall bit rate : 7 624 Kbps
Video #323
ID : 323 (0x143)
Menu ID : 14103 (0x3717)
Format : AVC
Format/Info : Advanced Video Codec
Format profile : Main@L4.0
Format settings, CABAC : Yes
Format settings, ReFrames : 3 frames
Codec ID : 27
Duration : 56mn 17s
Bit rate : 6 989 Kbps
Width : 1 920 pixels
Height : 1 080 pixels
Display aspect ratio : 16:9
Frame rate : 25.000 fps
Standard : Component
Color space : YUV
Chroma subsampling : 4:2:0
Bit depth : 8 bits
Scan type : Interlaced
Scan order : Top Field First
Bits/(Pixel*Frame) : 0.135
Stream size : 2.75 GiB (92%)
Color primaries : BT.709-5, BT.1361, IEC 61966-2-4, SMPTE RP177
Transfer characteristics : BT.709-5, BT.1361
Matrix coefficients : BT.709-5, BT.1361, IEC 61966-2-4 709, SMPTE RP177
Audio #403
ID : 403 (0x193)
Menu ID : 14103 (0x3717)
Format : MPEG Audio
Format version : Version 1
Format profile : Layer 2
Codec ID : 4
Duration : 56mn 17s
Bit rate mode : Constant
Bit rate : 256 Kbps
Channel(s) : 2 channels
Sampling rate : 48.0 KHz
Compression mode : Lossy
Delay relative to video : -1s 16ms
Stream size : 103 MiB (3%)
Language : French
Language, more info : Clean effects
Any questions - support@pro-jazz.com. Есть вопросы - support@pro-jazz.com
294
Нет комментариев. Ваш будет первым!