Вы используете незарегистрированную версию компонента "Вкладки"!

Поиск

2012 Silje Nergaard & Band - Gloria, Köln [HDTV 720p]

2012 Silje Nergaard & Band - Gloria, Köln [HDTV 720p]
Состав:

• Silje Nergaard, vocals
• Tord Gustavsen, piano / keyboards
• Bjцrn Charles Dreyer, guitar
• Harald Johnsen, bass
• Bjorn-Charles Dreyer, drums

Жанр: Vocal Jazz
Продолжительность: 17:35
Год выпуска: 2012
Описание: broadcast:
WDR-TV-Jazzline
High Definition HD
http://www.wdr.de/programmvorschau/object4Broadcast.jsp?broadcastId=4007992
Date: 2012-05-21

Качество: HDTV 720p
Контейнер: TS
Видео кодек: H.264
Аудио кодек: MP2
Видео: AVC, 1280:720, 8339 kbps, 50 fps
Аудио: MP2, 192 kbps, 48 kHz, 2 ch

Отчёт DVDInfo/MediaInfo/BDInfo
Общее
Идентификатор : 1 (0x1)
Полное имя : C:\MKV\Silje Nergaard & Band - Gloria, Köln, 2005-05-24 [HDTV 720p].ts
Формат : MPEG-TS
Размер файла : 1,10 Гбайт
Продолжительность : 17 м.
Общий поток : 8976 Кбит/сек

Видео
Идентификатор : 5501 (0x157D)
Идентификатор меню : 1 (0x1)
Формат : AVC
Формат/Информация : Advanced Video Codec
Профиль формата : High@L3.2
Параметр CABAC формата : Да
Параметр ReFrames формата : 4 кадра
Идентификатор кодека : 27
Продолжительность : 17 м.
Битрейт : 8339 Кбит/сек
Ширина : 1280 пикселей
Высота : 720 пикселей
Соотношение сторон : 16:9
Частота кадров : 50,000 кадров/сек
Цветовое пространство : YUV
Субдискретизация насыщенности : 4:2:0
Битовая глубина : 8 бит
Тип развёртки : Прогрессивная
Бит/(Пиксели*Кадры) : 0.181
Размер потока : 1,02 Гбайт (93%)

Аудио
Идентификатор : 5502 (0x157E)
Идентификатор меню : 1 (0x1)
Формат : MPEG Audio
Версия формата : Version 1
Профиль формата : Layer 2
Идентификатор кодека : 3
Продолжительность : 17 м.
Вид битрейта : Постоянный
Битрейт : 192 Кбит/сек
Каналы : 2 канала
Частота : 48,0 КГц
Метод сжатия : С потерями
Размер потока : 24,1 Мбайт (2%)
Язык
Any questions - support@pro-jazz.com. Есть вопросы - support@pro-jazz.com
225
Нет комментариев. Ваш будет первым!