Вы используете незарегистрированную версию компонента "Вкладки"!

Поиск

2012 Norah Jones - Rockpalast [HDTV 720p]

2012 Norah Jones - Rockpalast [HDTV 720p]
Состав:
  • Norah Jones - vocals, piano, wurlizer, guitar
  • Jason Roberts - guitar, backing vocals
  • Josh Lattanzi - bass, backing vocals
  • Pete Remm - keyboards
  • Greg Wieczorek - drums, backing vocals

Жанр: Vocal Jazz/ Indie Pop
Продолжительность: 1:09:52
Год выпуска: 2012

Качество: HDTV 720p
Контейнер: MKV
Видео кодек: H.264
Аудио кодек: AC3
Видео: AVC, 1280:720, 8345 kbps, 50 fps
Аудио: AC3, 448 kbps, 48 kHz, 2 ch


Место проведения: Rockpalast, Alter Wartesaal, Koln, Germany
April 18, 2012

Отчёт DVDInfo/MediaInfo/BDInfo
Общее
Уникальный идентификатор : 197900633725051778081092140550645727421 (0x94E2469106C8B264B80F020A9A89C0BD)
Полное имя : C:\MKV\Norah Jones - Rockpalast(2012)[HDTV 720p].mkv
Формат : Matroska
Версия формата : Version 2
Размер файла : 4,38 Гбайт
Продолжительность : 1 ч. 9 м.
Общий поток : 8972 Кбит/сек
Название фильма : Norah Jones 2012-04-18 Rockpalast
Дата кодирования : UTC 2012-05-21 09:56:40
Программа кодирования : mkvmerge v5.5.0 ('Healer') built on Apr 6 2012 21:43:24
Библиотека кодирования : libebml v1.2.3 + libmatroska v1.3.0
Attachment : Info / Photo

Видео
Идентификатор : 1
Формат : AVC
Формат/Информация : Advanced Video Codec
Профиль формата : High@L3.2
Параметр CABAC формата : Да
Параметр ReFrames формата : 4 кадра
Идентификатор кодека : V_MPEG4/ISO/AVC
Продолжительность : 1 ч. 9 м.
Битрейт : 8345 Кбит/сек
Ширина : 1280 пикселей
Высота : 720 пикселей
Соотношение сторон : 16:9
Частота кадров : 50,000 кадров/сек
Цветовое пространство : YUV
Субдискретизация насыщенности : 4:2:0
Битовая глубина : 8 бит
Тип развёртки : Прогрессивная
Бит/(Пиксели*Кадры) : 0.181
Размер потока : 4,07 Гбайт (93%)
Язык : English
Default : Да
Forced : Нет

Аудио
Идентификатор : 2
Формат : AC-3
Формат/Информация : Audio Coding 3
Расширение режима : CM (complete main)
Параметр Endianness формата : Big
Идентификатор кодека : A_AC3
Продолжительность : 1 ч. 9 м.
Вид битрейта : Постоянный
Битрейт : 448 Кбит/сек
Каналы : 2 канала
Расположение каналов : Front: L R
Частота : 48,0 КГц
Битовая глубина : 16 бит
Метод сжатия : С потерями
Размер потока : 224 Мбайт (5%)
Заголовок : DD 2.0
Язык : English
Default : Да
Forced : Нет

Меню
00:00:00.000 : en:Intro
00:00:14.960 : en:Good Morning
00:03:18.880 : en:Say Goodbye
00:07:09.000 : en:Little Broken Hearts
00:10:34.040 : en:She's 22
00:13:53.800 : en:Take It Back
00:18:18.240 : en:After The Fall
00:22:22.000 : en:Four Broken Hearts
00:25:41.760 : en:Travelin' On
00:28:57.560 : en:Out On The Road
00:32:54.280 : en:Happy Pills
00:36:37.800 : en:Miriam
00:41:25.560 : en:All A Dream
00:47:41.320 : en:Don't Know Why
00:52:00.040 : en:Sunrise
00:55:47.960 : en:It's Gonna Be
00:59:25.320 : en:Come Away With Me
01:03:18.080 : en:Stuck
Any questions - support@pro-jazz.com. Есть вопросы - support@pro-jazz.com
204
Нет комментариев. Ваш будет первым!