Вы используете незарегистрированную версию компонента "Вкладки"!

Поиск

2011 Sophie Hunger - AVO Session [HDTV 720p]

2011 Sophie Hunger - AVO Session [HDTV 720p]
Состав:
  • Sophie Hunger: vocals, guitars, piano
  • Michael Flury: trombone, keyboard, glockenspiel, vocals
  • Christian Prader: acoustic and electric guitars, flute, piano, vocals
  • Alberto Malo: drums
  • Simon Gerber: el. bass, vocals

Жанр: Songwriter/ Fusion
Продолжительность: 1:21:21
Год выпуска: 2011

Качество: HDTV 720p
Контейнер: MKV
Видео кодек: H.264
Аудио кодек: AC3
Видео: AVC, 1280:720 (16:9), 50 fps, 9190 kbps
Аудио: AC3, 448 kbps, 48 kHz, 6 ch
Аудио 2: MP2, 256 kbps, 48 kHz, 2 ch

Описание:

"AVO Session 2011"
Festsaal Messe Basel
Basel, Switzerland
2011-10-22

Отчёт DVDInfo/MediaInfo/BDInfo
Уникальный идентификатор : 221530211586019677388152076614281014641 (0xA6A92AB3EDC595D0879F6214308D2D71)
Полное имя : C:\MKV\Sophie Hunger - AVO Session 2011 [HDTV 720p].mkv
Формат : Matroska
Версия формата : Version 2
Размер файла : 5,74 Гбайт
Продолжительность : 1 ч. 21 м.
Режим общего битрейта : Переменный
Общий поток : 10,1 Мбит/сек
Дата кодирования : UTC 2012-05-05 15:09:28
Программа кодирования : mkvmerge v5.5.0 ('Healer') built on Apr 6 2012 21:43:24
Библиотека кодирования : libebml v1.2.3 + libmatroska v1.3.0

Видео
Идентификатор : 1
Формат : AVC
Формат/Информация : Advanced Video Codec
Профиль формата : High@L4.0
Параметр CABAC формата : Да
Параметр ReFrames формата : 3 кадра
Параметр GOP формата : M=2, N=24
Идентификатор кодека : V_MPEG4/ISO/AVC
Продолжительность : 1 ч. 21 м.
Вид битрейта : Переменный
Битрейт : 9190 Кбит/сек
Максимальный битрейт : 40,0 Мбит/сек
Ширина : 1280 пикселей
Высота : 720 пикселей
Соотношение сторон : 16:9
Частота кадров : 50,000 кадров/сек
Стандарт вещания : Component
Цветовое пространство : YUV
Субдискретизация насыщенности : 4:2:0
Битовая глубина : 8 бит
Тип развёртки : Прогрессивная
Бит/(Пиксели*Кадры) : 0.199
Размер потока : 5,22 Гбайт (91%)
Язык : English
Default : Да
Forced : Нет
Основные цвета : BT.709-5, BT.1361, IEC 61966-2-4, SMPTE RP177
Характеристики трансфера : BT.709-5, BT.1361
Коэффициенты матрицы : BT.709-5, BT.1361, IEC 61966-2-4 709, SMPTE RP177

Аудио #1
Идентификатор : 2
Формат : AC-3
Формат/Информация : Audio Coding 3
Расширение режима : CM (complete main)
Параметр Endianness формата : Big
Идентификатор кодека : A_AC3
Продолжительность : 1 ч. 21 м.
Вид битрейта : Постоянный
Битрейт : 448 Кбит/сек
Каналы : 6 каналов
Расположение каналов : Front: L C R, Side: L R, LFE
Частота : 48,0 КГц
Битовая глубина : 16 бит
Метод сжатия : С потерями
Задержка видео : -20 мс.
Размер потока : 261 Мбайт (4%)
Заголовок : AC3 6 ch
Язык : English
Default : Да
Forced : Нет

Аудио #2
Идентификатор : 3
Формат : MPEG Audio
Версия формата : Version 1
Профиль формата : Layer 2
Идентификатор кодека : A_MPEG/L2
Идентификатор кодека/Подсказка : MP2
Продолжительность : 1 ч. 21 м.
Вид битрейта : Постоянный
Битрейт : 256 Кбит/сек
Каналы : 2 канала
Частота : 48,0 КГц
Метод сжатия : С потерями
Задержка видео : -20 мс.
Размер потока : 149 Мбайт (3%)
Заголовок : MP2 2 ch
Язык : English
Default : Нет
Forced : Нет
Any questions - support@pro-jazz.com. Есть вопросы - support@pro-jazz.com
188
Нет комментариев. Ваш будет первым!