Поиск

2012 Tony Bennett - Duets II The Great Performances [Blu-ray]

2012 Tony Bennett - Duets II The Great Performances [Blu-ray]
Треклист:

01. Don't Get Around Much Anymore (with Michae Buble)
02. Who Can I Turn To (When Nobody Needs Me) (with Queen Latifah)
03. Stranger In Paradise (with Andrea Bocelli)
04. Watch What Happens (with Natalie Cole)
05. Body And Soul (with Amy Winehouse)
06. It Had To Be You (with Carrie Underwood)
07. Blue Velvet (with k.d. lang)
08. Speak Low (with Norah Jones)
09. On The Sunny Side Of The Street (with Willie Nelson)
10. The Way You Look Tonight (with Faith Hill)
11. Yesterday I Heard The Rain (with Alejandro Sanz)
12. The Girl I Love (with Sheryl Crow)
13. This Is All I Ask (with Josh Groban)
14. The Lady Is A Tramp (with Lady Gaga)
15. One For My Baby (And One More For The Road) (with John Mayer)
16. How Do You Keep The Music Playing (with Aretha Franklin)

Бонус:
Opening
Michael Buble Introduction
Birthday Greetings (Bonus Content)
Signed Sheet Music (Bonus Content)

Год выпуска: 2012
Жанр: Jazz, Swing, Pop
Продолжительность: 01:23:05

Качество: Blu-ray
Формат: BDMV
Видео кодек: MPEG-4 AVC
Аудио кодек: PCM
Видео: 1920x1080i, MPEG-4 AVC, 29,970 fps, ~29994 Kbps
Аудио: LPCM 2.0 (48 kHz / 2304 kbps / 24-bit)

Отчёт DVDInfo/MediaInfo/BDInfo
Disc Title: TONY_BENNETT_DUETS_II
Disc Size: 22 576 620 708 bytes
Protection: AACS
BD-Java: No
BDInfo: 0.5.6

Notes:

BDINFO HOME:
Cinema Squid
http://www.cinemasquid.com/blu-ray/tools/bdinfo

INCLUDES FORUMS REPORT FOR:
AVS Forum Blu-ray Audio and Video Specifications Thread
http://www.avsforum.com/avs-vb/showthread.php?t=1155731

********************
PLAYLIST: 00010.MPLS
********************

<--- BEGIN FORUMS PASTE --->
Код:
Total Video
Title Codec Length Movie Size Disc Size Bitrate Bitrate Main Audio Track Secondary Audio Track
----- ------ ------- -------------- -------------- ------- ------- ------------------ ---------------------
00010.MPLS AVC 1:23:05 21 083 566 080 22 576 620 708 33,83 29,99 LPCM 2.0 2304Kbps (48kHz/24-bit)
Код:
DISC INFO:

Disc Title: TONY_BENNETT_DUETS_II
Disc Size: 22 576 620 708 bytes
Protection: AACS
BD-Java: No
BDInfo: 0.5.6

PLAYLIST REPORT:

Name: 00010.MPLS
Length: 1:23:05 (h:m:s)
Size: 21 083 566 080 bytes
Total Bitrate: 33,83 Mbps

VIDEO:

Codec Bitrate Description
----- ------- -----------
MPEG-4 AVC Video 29994 kbps 1080i / 29,970 fps / 16:9 / High Profile 4.1

AUDIO:

Codec Language Bitrate Description
----- -------- ------- -----------
LPCM Audio English 2304 kbps 2.0 / 48 kHz / 2304 kbps / 24-bit

FILES:

Name Time In Length Size Total Bitrate
---- ------- ------ ---- -------------
00009.M2TS 0:00:00.000 1:23:05.146 21 083 566 080 33 834

CHAPTERS:

Number Time In Length Avg Video Rate Max 1-Sec Rate Max 1-Sec Time Max 5-Sec Rate Max 5-Sec Time Max 10Sec Rate Max 10Sec Time Avg Frame Size Max Frame Size Max Frame Time
------ ------- ------ -------------- -------------- -------------- -------------- -------------- -------------- -------------- -------------- -------------- --------------
1 0:00:00.000 1:23:05.146 29 994 kbps 46 475 kbps 00:14:03.776 39 977 kbps 00:13:59.839 39 215 kbps 00:13:54.834 125 101 bytes 578 558 bytes 00:24:18.323

STREAM DIAGNOSTICS:

File PID Type Codec Language Seconds Bitrate Bytes Packets
---- --- ---- ----- -------- -------------- -------------- ------------- -----
00009.M2TS 4113 (0x1011) 0x1B AVC 4985,013 29 995 18 690 664 631 101 667 001
00009.M2TS 4352 (0x1100) 0x80 LPCM eng (English) 4985,013 2 310 1 439 711 320 7 976 240
<---- END FORUMS PASTE ---->

QUICK SUMMARY:

Disc Title: TONY_BENNETT_DUETS_II
Disc Size: 22 576 620 708 bytes
Protection: AACS
BD-Java: No
Playlist: 00010.MPLS
Size: 21 083 566 080 bytes
Length: 1:23:05
Total Bitrate: 33,83 Mbps
Video: MPEG-4 AVC Video / 29994 kbps / 1080i / 29,970 fps / 16:9 / High Profile 4.1
Audio: English / LPCM Audio / 2.0 / 48 kHz / 2304 kbps / 24-bit

********************
PLAYLIST: 00012.MPLS
********************

<--- BEGIN FORUMS PASTE --->
Код:
Total Video
Title Codec Length Movie Size Disc Size Bitrate Bitrate Main Audio Track Secondary Audio Track
----- ------ ------- -------------- -------------- ------- ------- ------------------ ---------------------
00012.MPLS AVC 1:23:05 21 083 566 080 22 576 620 708 33,83 29,99 LPCM 2.0 2304Kbps (48kHz/24-bit)
Код:
DISC INFO:

Disc Title: TONY_BENNETT_DUETS_II
Disc Size: 22 576 620 708 bytes
Protection: AACS
BD-Java: No
BDInfo: 0.5.6

PLAYLIST REPORT:

Name: 00012.MPLS
Length: 1:23:05 (h:m:s)
Size: 21 083 566 080 bytes
Total Bitrate: 33,83 Mbps

VIDEO:

Codec Bitrate Description
----- ------- -----------
MPEG-4 AVC Video 29994 kbps 1080i / 29,970 fps / 16:9 / High Profile 4.1

AUDIO:

Codec Language Bitrate Description
----- -------- ------- -----------
LPCM Audio English 2304 kbps 2.0 / 48 kHz / 2304 kbps / 24-bit

FILES:

Name Time In Length Size Total Bitrate
---- ------- ------ ---- -------------
00009.M2TS 0:00:00.000 1:23:05.146 21 083 566 080 33 834

CHAPTERS:

Number Time In Length Avg Video Rate Max 1-Sec Rate Max 1-Sec Time Max 5-Sec Rate Max 5-Sec Time Max 10Sec Rate Max 10Sec Time Avg Frame Size Max Frame Size Max Frame Time
------ ------- ------ -------------- -------------- -------------- -------------- -------------- -------------- -------------- -------------- -------------- --------------
1 0:00:00.000 0:02:21.407 30 423 kbps 40 392 kbps 00:01:37.630 38 945 kbps 00:01:27.520 38 708 kbps 00:01:22.949 126 860 bytes 376 338 bytes 00:01:44.237
2 0:02:21.407 0:00:23.123 31 829 kbps 40 073 kbps 00:02:39.626 36 614 kbps 00:02:21.407 32 600 kbps 00:02:31.684 132 754 bytes 322 112 bytes 00:02:24.744
3 0:02:44.531 0:03:10.156 30 123 kbps 41 769 kbps 00:04:28.234 38 970 kbps 00:03:54.767 35 405 kbps 00:03:54.767 125 637 bytes 391 599 bytes 00:05:23.956
4 0:05:54.687 0:00:33.299 30 668 kbps 39 764 kbps 00:05:56.422 37 293 kbps 00:06:13.940 34 797 kbps 00:06:13.706 127 911 bytes 336 071 bytes 00:06:10.203
5 0:06:27.987 0:03:21.334 33 184 kbps 40 021 kbps 00:07:41.260 38 764 kbps 00:07:39.225 37 823 kbps 00:06:50.109 138 407 bytes 337 484 bytes 00:07:55.241
6 0:09:49.322 0:02:04.724 32 335 kbps 42 773 kbps 00:11:52.578 39 137 kbps 00:11:03.362 38 914 kbps 00:11:43.602 134 864 bytes 410 266 bytes 00:11:53.479
7 0:11:54.046 0:05:15.248 35 436 kbps 46 475 kbps 00:14:03.776 39 977 kbps 00:13:59.839 39 215 kbps 00:13:54.834 147 797 bytes 440 991 bytes 00:12:37.923
8 0:17:09.294 0:00:16.683 33 142 kbps 41 160 kbps 00:17:21.140 38 842 kbps 00:17:17.136 38 310 kbps 00:17:12.131 138 231 bytes 371 853 bytes 00:17:22.041
9 0:17:25.978 0:02:08.328 21 235 kbps 28 913 kbps 00:19:03.375 25 545 kbps 00:19:03.375 23 146 kbps 00:19:03.475 88 568 bytes 320 499 bytes 00:19:33.338
10 0:19:34.306 0:01:20.747 37 736 kbps 41 446 kbps 00:20:54.019 38 999 kbps 00:20:50.015 38 772 kbps 00:19:50.022 157 391 bytes 360 354 bytes 00:19:35.941
11 0:20:55.053 0:03:49.562 35 656 kbps 43 404 kbps 00:22:00.519 39 534 kbps 00:21:31.156 39 050 kbps 00:22:50.736 148 713 bytes 578 558 bytes 00:24:18.323
12 0:24:44.616 0:00:42.709 37 206 kbps 40 738 kbps 00:25:26.024 38 984 kbps 00:25:07.138 38 843 kbps 00:25:02.100 155 180 bytes 319 966 bytes 00:25:26.925
13 0:25:27.325 0:03:45.959 25 891 kbps 38 893 kbps 00:28:18.563 37 694 kbps 00:28:18.496 37 095 kbps 00:28:17.028 107 986 bytes 354 380 bytes 00:29:11.583
14 0:29:13.284 0:01:28.755 37 509 kbps 40 837 kbps 00:30:40.271 38 951 kbps 00:30:08.039 38 831 kbps 00:30:08.039 156 442 bytes 323 531 bytes 00:30:09.007
15 0:30:42.040 0:04:27.967 24 291 kbps 39 877 kbps 00:34:26.164 37 852 kbps 00:34:24.996 36 475 kbps 00:34:20.124 101 315 bytes 363 402 bytes 00:35:08.306
16 0:35:10.007 0:01:04.831 34 722 kbps 40 500 kbps 00:36:11.335 39 012 kbps 00:35:47.678 38 896 kbps 00:35:47.678 144 821 bytes 330 635 bytes 00:35:46.077
17 0:36:14.839 0:03:52.165 24 740 kbps 30 003 kbps 00:37:58.709 27 874 kbps 00:37:33.284 27 278 kbps 00:37:30.414 103 185 bytes 374 393 bytes 00:40:05.569
18 0:40:07.004 0:00:31.531 31 938 kbps 39 103 kbps 00:40:12.410 38 470 kbps 00:40:10.808 37 040 kbps 00:40:09.573 133 210 bytes 326 990 bytes 00:40:15.012
19 0:40:38.536 0:03:06.486 28 716 kbps 41 386 kbps 00:43:41.085 39 277 kbps 00:43:36.981 37 541 kbps 00:43:32.076 119 771 bytes 360 920 bytes 00:43:44.655
20 0:43:45.022 0:00:51.484 31 720 kbps 39 514 kbps 00:43:50.894 37 059 kbps 00:43:47.958 33 292 kbps 00:43:48.158 132 299 bytes 370 752 bytes 00:43:45.155
21 0:44:36.507 0:03:48.461 27 727 kbps 36 343 kbps 00:46:01.592 34 280 kbps 00:46:01.592 32 426 kbps 00:45:10.674 115 645 bytes 550 882 bytes 00:48:23.533
22 0:48:24.968 0:00:25.425 28 778 kbps 39 443 kbps 00:48:25.302 38 152 kbps 00:48:28.238 36 099 kbps 00:48:25.102 120 028 bytes 280 411 bytes 00:48:32.242
23 0:48:50.394 0:03:53.533 29 459 kbps 44 642 kbps 00:51:20.377 39 925 kbps 00:51:16.406 38 105 kbps 00:50:05.902 122 869 bytes 390 854 bytes 00:52:43.927
24 0:52:43.927 0:00:54.087 37 332 kbps 41 545 kbps 00:53:34.244 39 091 kbps 00:53:30.207 38 859 kbps 00:53:13.390 155 707 bytes 404 171 bytes 00:53:35.111
25 0:53:38.014 0:03:43.623 27 463 kbps 34 797 kbps 00:56:11.968 32 225 kbps 00:54:30.500 31 079 kbps 00:56:18.641 114 544 bytes 381 228 bytes 00:57:19.869
26 0:57:21.638 0:00:51.985 35 992 kbps 40 338 kbps 00:57:47.297 38 907 kbps 00:57:32.916 38 337 kbps 00:57:42.492 150 115 bytes 369 788 bytes 00:57:37.921
27 0:58:13.623 0:04:46.419 31 000 kbps 43 345 kbps 01:00:54.517 39 663 kbps 01:00:50.513 38 887 kbps 00:59:53.590 129 296 bytes 405 090 bytes 01:02:34.484
28 1:03:00.042 0:02:16.936 32 051 kbps 39 359 kbps 01:04:23.960 37 316 kbps 01:04:36.639 36 854 kbps 01:04:31.601 133 679 bytes 346 954 bytes 01:03:33.009
29 1:05:16.979 0:03:16.496 33 905 kbps 42 757 kbps 01:07:56.072 38 655 kbps 01:08:03.813 37 754 kbps 01:06:15.871 141 414 bytes 372 511 bytes 01:08:33.142
30 1:08:33.476 0:01:09.002 34 520 kbps 39 923 kbps 01:08:59.001 38 514 kbps 01:08:54.997 37 709 kbps 01:08:50.025 143 977 bytes 323 018 bytes 01:09:31.634
31 1:09:42.478 0:03:03.216 27 001 kbps 41 602 kbps 01:12:27.843 37 883 kbps 01:12:24.306 34 259 kbps 01:12:18.834 112 617 bytes 537 919 bytes 01:12:44.793
32 1:12:45.694 0:00:36.302 21 898 kbps 27 508 kbps 01:13:05.147 25 008 kbps 01:13:02.077 24 303 kbps 01:12:46.795 91 331 bytes 475 187 bytes 01:12:45.794
33 1:13:21.997 0:05:13.880 23 906 kbps 33 344 kbps 01:17:38.854 31 531 kbps 01:18:14.790 30 270 kbps 01:18:11.119 99 708 bytes 364 919 bytes 01:18:34.676
34 1:18:35.877 0:04:29.268 31 713 kbps 45 088 kbps 01:21:42.297 39 007 kbps 01:21:38.293 38 822 kbps 01:19:46.581 132 286 bytes 461 126 bytes 01:20:45.974

STREAM DIAGNOSTICS:

File PID Type Codec Language Seconds Bitrate Bytes Packets
---- --- ---- ----- -------- -------------- -------------- ------------- -----
00009.M2TS 4113 (0x1011) 0x1B AVC 4985,013 29 995 18 690 664 631 101 667 001
00009.M2TS 4352 (0x1100) 0x80 LPCM eng (English) 4985,013 2 310 1 439 711 320 7 976 240
<---- END FORUMS PASTE ---->

QUICK SUMMARY:

Disc Title: TONY_BENNETT_DUETS_II
Disc Size: 22 576 620 708 bytes
Protection: AACS
BD-Java: No
Playlist: 00012.MPLS
Size: 21 083 566 080 bytes
Length: 1:23:05
Total Bitrate: 33,83 Mbps
Video: MPEG-4 AVC Video / 29994 kbps / 1080i / 29,970 fps / 16:9 / High Profile 4.1
Audio: English / LPCM Audio / 2.0 / 48 kHz / 2304 kbps / 24-bit

********************
PLAYLIST: 00011.MPLS
********************

<--- BEGIN FORUMS PASTE --->
Код:
Total Video
Title Codec Length Movie Size Disc Size Bitrate Bitrate Main Audio Track Secondary Audio Track
----- ------ ------- -------------- -------------- ------- ------- ------------------ ---------------------
00011.MPLS AVC 0:03:03 776 601 600 22 576 620 708 33,83 29,99 LPCM 2.0 2304Kbps (48kHz/24-bit)
Код:
DISC INFO:

Disc Title: TONY_BENNETT_DUETS_II
Disc Size: 22 576 620 708 bytes
Protection: AACS
BD-Java: No
BDInfo: 0.5.6

PLAYLIST REPORT:

Name: 00011.MPLS
Length: 0:03:03 (h:m:s)
Size: 776 601 600 bytes
Total Bitrate: 33,83 Mbps

VIDEO:

Codec Bitrate Description
----- ------- -----------
MPEG-4 AVC Video 29990 kbps 1080i / 29,970 fps / 16:9 / High Profile 4.1

AUDIO:

Codec Language Bitrate Description
----- -------- ------- -----------
LPCM Audio English 2304 kbps 2.0 / 48 kHz / 2304 kbps / 24-bit

FILES:

Name Time In Length Size Total Bitrate
---- ------- ------ ---- -------------
00010.M2TS 0:00:00.000 0:03:03.650 776 601 600 33 830

CHAPTERS:

Number Time In Length Avg Video Rate Max 1-Sec Rate Max 1-Sec Time Max 5-Sec Rate Max 5-Sec Time Max 10Sec Rate Max 10Sec Time Avg Frame Size Max Frame Size Max Frame Time
------ ------- ------ -------------- -------------- -------------- -------------- -------------- -------------- -------------- -------------- -------------- --------------
1 0:00:00.000 0:03:03.650 29 990 kbps 39 453 kbps 00:01:45.572 38 560 kbps 00:01:42.168 38 065 kbps 00:01:20.780 125 084 bytes 347 904 bytes 00:01:37.797

STREAM DIAGNOSTICS:

File PID Type Codec Language Seconds Bitrate Bytes Packets
---- --- ---- ----- -------- -------------- -------------- ------------- -----
00010.M2TS 4113 (0x1011) 0x1B AVC 183,517 30 012 688 463 770 3 744 830
00010.M2TS 4352 (0x1100) 0x80 LPCM eng (English) 183,517 2 312 53 029 456 293 792
<---- END FORUMS PASTE ---->

QUICK SUMMARY:

Disc Title: TONY_BENNETT_DUETS_II
Disc Size: 22 576 620 708 bytes
Protection: AACS
BD-Java: No
Playlist: 00011.MPLS
Size: 776 601 600 bytes
Length: 0:03:03
Total Bitrate: 33,83 Mbps
Video: MPEG-4 AVC Video / 29990 kbps / 1080i / 29,970 fps / 16:9 / High Profile 4.1
Audio: English / LPCM Audio / 2.0 / 48 kHz / 2304 kbps / 24-bit

********************
PLAYLIST: 00013.MPLS
********************

<--- BEGIN FORUMS PASTE --->
Код:
Total Video
Title Codec Length Movie Size Disc Size Bitrate Bitrate Main Audio Track Secondary Audio Track
----- ------ ------- -------------- -------------- ------- ------- ------------------ ---------------------
00013.MPLS AVC 0:03:03 776 601 600 22 576 620 708 33,83 29,99 LPCM 2.0 2304Kbps (48kHz/24-bit)
Код:
DISC INFO:

Disc Title: TONY_BENNETT_DUETS_II
Disc Size: 22 576 620 708 bytes
Protection: AACS
BD-Java: No
BDInfo: 0.5.6

PLAYLIST REPORT:

Name: 00013.MPLS
Length: 0:03:03 (h:m:s)
Size: 776 601 600 bytes
Total Bitrate: 33,83 Mbps

VIDEO:

Codec Bitrate Description
----- ------- -----------
MPEG-4 AVC Video 29990 kbps 1080i / 29,970 fps / 16:9 / High Profile 4.1

AUDIO:

Codec Language Bitrate Description
----- -------- ------- -----------
LPCM Audio English 2304 kbps 2.0 / 48 kHz / 2304 kbps / 24-bit

FILES:

Name Time In Length Size Total Bitrate
---- ------- ------ ---- -------------
00010.M2TS 0:00:00.000 0:03:03.650 776 601 600 33 830

CHAPTERS:

Number Time In Length Avg Video Rate Max 1-Sec Rate Max 1-Sec Time Max 5-Sec Rate Max 5-Sec Time Max 10Sec Rate Max 10Sec Time Avg Frame Size Max Frame Size Max Frame Time
------ ------- ------ -------------- -------------- -------------- -------------- -------------- -------------- -------------- -------------- -------------- --------------
1 0:00:00.000 0:03:03.650 29 990 kbps 39 453 kbps 00:01:45.572 38 560 kbps 00:01:42.168 38 065 kbps 00:01:20.780 125 084 bytes 347 904 bytes 00:01:37.797

STREAM DIAGNOSTICS:

File PID Type Codec Language Seconds Bitrate Bytes Packets
---- --- ---- ----- -------- -------------- -------------- ------------- -----
00010.M2TS 4113 (0x1011) 0x1B AVC 183,517 30 012 688 463 770 3 744 830
00010.M2TS 4352 (0x1100) 0x80 LPCM eng (English) 183,517 2 312 53 029 456 293 792
<---- END FORUMS PASTE ---->

QUICK SUMMARY:

Disc Title: TONY_BENNETT_DUETS_II
Disc Size: 22 576 620 708 bytes
Protection: AACS
BD-Java: No
Playlist: 00013.MPLS
Size: 776 601 600 bytes
Length: 0:03:03
Total Bitrate: 33,83 Mbps
Video: MPEG-4 AVC Video / 29990 kbps / 1080i / 29,970 fps / 16:9 / High Profile 4.1
Audio: English / LPCM Audio / 2.0 / 48 kHz / 2304 kbps / 24-bit

********************
PLAYLIST: 00001.MPLS
********************

<--- BEGIN FORUMS PASTE --->
Код:
Total Video
Title Codec Length Movie Size Disc Size Bitrate Bitrate Main Audio Track Secondary Audio Track
----- ------ ------- -------------- -------------- ------- ------- ------------------ ---------------------
00001.MPLS MPEG-2 0:02:40 7 640 256 22 576 620 708 0,38 0,16
Код:
DISC INFO:

Disc Title: TONY_BENNETT_DUETS_II
Disc Size: 22 576 620 708 bytes
Protection: AACS
BD-Java: No
BDInfo: 0.5.6

PLAYLIST REPORT:

Name: 00001.MPLS
Length: 0:02:40 (h:m:s)
Size: 7 640 256 bytes
Total Bitrate: 0,38 Mbps

VIDEO:

Codec Bitrate Description
----- ------- -----------
MPEG-2 Video 158 kbps 1080p / 23,976 fps / 16:9

FILES:

Name Time In Length Size Total Bitrate
---- ------- ------ ---- -------------
00003.M2TS 0:00:00.000 0:00:10.010 462 720 185
00003.M2TS 0:00:10.010 0:00:10.009 445 248 178
00003.M2TS 0:00:20.020 0:00:10.010 373 632 150
00003.M2TS 0:00:30.030 0:00:10.009 422 592 169
00003.M2TS 0:00:40.040 0:00:10.009 542 016 217
00003.M2TS 0:00:50.050 0:00:10.010 416 064 167
00003.M2TS 0:01:00.060 0:00:10.010 417 408 167
00003.M2TS 0:01:10.070 0:00:10.009 426 432 171
00003.M2TS 0:01:20.080 0:00:10.010 433 152 173
00003.M2TS 0:01:30.090 0:00:10.009 473 088 189
00003.M2TS 0:01:40.100 0:00:10.010 430 464 172
00003.M2TS 0:01:50.110 0:00:10.010 489 984 196
00003.M2TS 0:02:00.120 0:00:10.009 465 792 187
00003.M2TS 0:02:10.130 0:00:10.010 440 448 176
00003.M2TS 0:02:20.140 0:00:10.009 392 256 157
00003.M2TS 0:02:30.150 0:00:10.009 692 352 277
00003.M2TS 0:02:40.160 0:00:00.041 316 608 60 724

CHAPTERS:

Number Time In Length Avg Video Rate Max 1-Sec Rate Max 1-Sec Time Max 5-Sec Rate Max 5-Sec Time Max 10Sec Rate Max 10Sec Time Avg Frame Size Max Frame Size Max Frame Time
------ ------- ------ -------------- -------------- -------------- -------------- -------------- -------------- -------------- -------------- -------------- --------------
1 0:00:00.000 0:00:10.010 596 kbps 292 kbps 00:00:09.968 292 kbps 00:00:09.968 292 kbps 00:00:09.968 372 972 bytes 380 872 bytes 00:00:09.968
2 0:00:10.010 0:00:10.009 237 kbps 237 kbps 00:00:19.978 237 kbps 00:00:19.978 237 kbps 00:00:19.978 296 090 bytes 296 090 bytes 00:00:29.988
3 0:00:20.020 0:00:10.010 274 kbps 274 kbps 00:00:29.988 274 kbps 00:00:29.988 274 kbps 00:00:29.988 343 451 bytes 343 451 bytes 00:00:39.998
4 0:00:30.030 0:00:10.009 365 kbps 365 kbps 00:00:39.998 365 kbps 00:00:39.998 365 kbps 00:00:39.998 457 301 bytes 457 301 bytes 00:00:50.008
5 0:00:40.040 0:00:10.009 269 kbps 269 kbps 00:00:50.008 269 kbps 00:00:50.008 269 kbps 00:00:50.008 337 176 bytes 337 176 bytes 00:01:00.018
6 0:00:50.050 0:00:10.010 270 kbps 270 kbps 00:01:00.018 270 kbps 00:01:00.018 270 kbps 00:01:00.018 338 027 bytes 338 027 bytes 00:01:10.028
7 0:01:00.060 0:00:10.010 277 kbps 277 kbps 00:01:10.028 277 kbps 00:01:10.028 277 kbps 00:01:10.028 347 188 bytes 347 188 bytes 00:01:20.038
8 0:01:10.070 0:00:10.009 282 kbps 282 kbps 00:01:20.038 282 kbps 00:01:20.038 282 kbps 00:01:20.038 352 727 bytes 352 727 bytes 00:01:30.048
9 0:01:20.080 0:00:10.010 313 kbps 313 kbps 00:01:30.048 313 kbps 00:01:30.048 313 kbps 00:01:30.048 391 734 bytes 391 734 bytes 00:01:40.058
10 0:01:30.090 0:00:10.009 280 kbps 280 kbps 00:01:40.058 280 kbps 00:01:40.058 280 kbps 00:01:40.058 350 683 bytes 350 683 bytes 00:01:50.068
11 0:01:40.100 0:00:10.010 326 kbps 326 kbps 00:01:50.068 326 kbps 00:01:50.068 326 kbps 00:01:50.068 407 968 bytes 407 968 bytes 00:02:00.078
12 0:01:50.110 0:00:10.010 307 kbps 307 kbps 00:02:00.078 307 kbps 00:02:00.078 307 kbps 00:02:00.078 384 412 bytes 384 412 bytes 00:02:10.088
13 0:02:00.120 0:00:10.009 288 kbps 288 kbps 00:02:10.088 288 kbps 00:02:10.088 288 kbps 00:02:10.088 360 271 bytes 360 271 bytes 00:02:20.098
14 0:02:10.130 0:00:10.010 251 kbps 251 kbps 00:02:20.098 251 kbps 00:02:20.098 251 kbps 00:02:20.098 314 017 bytes 314 017 bytes 00:02:30.108
15 0:02:20.140 0:00:10.009 239 kbps 239 kbps 00:02:30.108 239 kbps 00:02:30.108 239 kbps 00:02:30.108 298 533 bytes 298 533 bytes 00:02:40.118
16 0:02:30.150 0:00:10.051 37 843 kbps 602 kbps 00:00:39.956 602 kbps 00:00:39.956 602 kbps 00:00:39.956 347 072 bytes 457 301 bytes 00:00:50.008

STREAM DIAGNOSTICS:

File PID Type Codec Language Seconds Bitrate Bytes Packets
---- --- ---- ----- -------- -------------- -------------- ------------- -----
00003.M2TS 4113 (0x1011) 0x02 MPEG-2 150,150 321 6 024 054 32 751
<---- END FORUMS PASTE ---->

QUICK SUMMARY:

Disc Title: TONY_BENNETT_DUETS_II
Disc Size: 22 576 620 708 bytes
Protection: AACS
BD-Java: No
Playlist: 00001.MPLS
Size: 7 640 256 bytes
Length: 0:02:40
Total Bitrate: 0,38 Mbps
Video: MPEG-2 Video / 158 kbps / 1080p / 23,976 fps / 16:9

********************
PLAYLIST: 00014.MPLS
********************

<--- BEGIN FORUMS PASTE --->
Код:
Total Video
Title Codec Length Movie Size Disc Size Bitrate Bitrate Main Audio Track Secondary Audio Track
----- ------ ------- -------------- -------------- ------- ------- ------------------ ---------------------
00014.MPLS AVC 0:01:15 317 036 544 22 576 620 708 33,80 29,96 LPCM 2.0 2304Kbps (48kHz/24-bit)
Код:
DISC INFO:

Disc Title: TONY_BENNETT_DUETS_II
Disc Size: 22 576 620 708 bytes
Protection: AACS
BD-Java: No
BDInfo: 0.5.6

PLAYLIST REPORT:

Name: 00014.MPLS
Length: 0:01:15 (h:m:s)
Size: 317 036 544 bytes
Total Bitrate: 33,80 Mbps

VIDEO:

Codec Bitrate Description
----- ------- -----------
MPEG-4 AVC Video 29960 kbps 1080i / 29,970 fps / 16:9 / High Profile 4.1

AUDIO:

Codec Language Bitrate Description
----- -------- ------- -----------
LPCM Audio English 2304 kbps 2.0 / 48 kHz / 2304 kbps / 24-bit

FILES:

Name Time In Length Size Total Bitrate
---- ------- ------ ---- -------------
00011.M2TS 0:00:00.000 0:01:15.041 317 036 544 33 798

CHAPTERS:

Number Time In Length Avg Video Rate Max 1-Sec Rate Max 1-Sec Time Max 5-Sec Rate Max 5-Sec Time Max 10Sec Rate Max 10Sec Time Avg Frame Size Max Frame Size Max Frame Time
------ ------- ------ -------------- -------------- -------------- -------------- -------------- -------------- -------------- -------------- -------------- --------------
1 0:00:00.000 0:01:15.041 29 960 kbps 40 356 kbps 00:00:09.642 35 072 kbps 00:00:09.642 33 033 kbps 00:00:09.642 124 959 bytes 635 441 bytes 00:00:15.215

STREAM DIAGNOSTICS:

File PID Type Codec Language Seconds Bitrate Bytes Packets
---- --- ---- ----- -------- -------------- -------------- ------------- -----
00011.M2TS 4113 (0x1011) 0x1B AVC 74,908 30 014 281 033 107 1 528 634
00011.M2TS 4352 (0x1100) 0x80 LPCM eng (English) 74,908 2 315 21 672 996 120 072
<---- END FORUMS PASTE ---->

QUICK SUMMARY:

Disc Title: TONY_BENNETT_DUETS_II
Disc Size: 22 576 620 708 bytes
Protection: AACS
BD-Java: No
Playlist: 00014.MPLS
Size: 317 036 544 bytes
Length: 0:01:15
Total Bitrate: 33,80 Mbps
Video: MPEG-4 AVC Video / 29960 kbps / 1080i / 29,970 fps / 16:9 / High Profile 4.1
Audio: English / LPCM Audio / 2.0 / 48 kHz / 2304 kbps / 24-bit

********************
PLAYLIST: 00015.MPLS
********************

<--- BEGIN FORUMS PASTE --->
Код:
Total Video
Title Codec Length Movie Size Disc Size Bitrate Bitrate Main Audio Track Secondary Audio Track
----- ------ ------- -------------- -------------- ------- ------- ------------------ ---------------------
00015.MPLS AVC 0:01:15 316 962 816 22 576 620 708 33,79 29,95 LPCM 2.0 2304Kbps (48kHz/24-bit)
Код:
DISC INFO:

Disc Title: TONY_BENNETT_DUETS_II
Disc Size: 22 576 620 708 bytes
Protection: AACS
BD-Java: No
BDInfo: 0.5.6

PLAYLIST REPORT:

Name: 00015.MPLS
Length: 0:01:15 (h:m:s)
Size: 316 962 816 bytes
Total Bitrate: 33,79 Mbps

VIDEO:

Codec Bitrate Description
----- ------- -----------
MPEG-4 AVC Video 29953 kbps 1080i / 29,970 fps / 16:9 / High Profile 4.1

AUDIO:

Codec Language Bitrate Description
----- -------- ------- -----------
LPCM Audio English 2304 kbps 2.0 / 48 kHz / 2304 kbps / 24-bit

FILES:

Name Time In Length Size Total Bitrate
---- ------- ------ ---- -------------
00012.M2TS 0:00:00.000 0:01:15.041 316 962 816 33 791

CHAPTERS:

Number Time In Length Avg Video Rate Max 1-Sec Rate Max 1-Sec Time Max 5-Sec Rate Max 5-Sec Time Max 10Sec Rate Max 10Sec Time Avg Frame Size Max Frame Size Max Frame Time
------ ------- ------ -------------- -------------- -------------- -------------- -------------- -------------- -------------- -------------- -------------- --------------
1 0:00:00.000 0:01:15.041 29 953 kbps 33 505 kbps 00:01:13.039 30 565 kbps 00:01:09.035 30 357 kbps 00:01:04.030 124 928 bytes 625 071 bytes 00:00:37.037

STREAM DIAGNOSTICS:

File PID Type Codec Language Seconds Bitrate Bytes Packets
---- --- ---- ----- -------- -------------- -------------- ------------- -----
00012.M2TS 4113 (0x1011) 0x1B AVC 74,908 30 006 280 962 170 1 528 284
00012.M2TS 4352 (0x1100) 0x80 LPCM eng (English) 74,908 2 315 21 672 996 120 072
<---- END FORUMS PASTE ---->

QUICK SUMMARY:

Disc Title: TONY_BENNETT_DUETS_II
Disc Size: 22 576 620 708 bytes
Protection: AACS
BD-Java: No
Playlist: 00015.MPLS
Size: 316 962 816 bytes
Length: 0:01:15
Total Bitrate: 33,79 Mbps
Video: MPEG-4 AVC Video / 29953 kbps / 1080i / 29,970 fps / 16:9 / High Profile 4.1
Audio: English / LPCM Audio / 2.0 / 48 kHz / 2304 kbps / 24-bit

********************
PLAYLIST: 00009.MPLS
********************

<--- BEGIN FORUMS PASTE --->
Код:
Total Video
Title Codec Length Movie Size Disc Size Bitrate Bitrate Main Audio Track Secondary Audio Track
----- ------ ------- -------------- -------------- ------- ------- ------------------ ---------------------
00009.MPLS AVC 0:00:33 43 124 736 22 576 620 708 10,44 2,28 LPCM 2.0 1536Kbps (48kHz/16-bit) LPCM 2.0 1536Kbps (48kHz/16-bit)
Код:
DISC INFO:

Disc Title: TONY_BENNETT_DUETS_II
Disc Size: 22 576 620 708 bytes
Protection: AACS
BD-Java: No
BDInfo: 0.5.6

PLAYLIST REPORT:

Name: 00009.MPLS
Length: 0:00:33 (h:m:s)
Size: 43 124 736 bytes
Total Bitrate: 10,44 Mbps

VIDEO:

Codec Bitrate Description
----- ------- -----------
MPEG-4 AVC Video 2277 kbps 1080i / 29,970 fps / 16:9 / High Profile 4.1

AUDIO:

Codec Language Bitrate Description
----- -------- ------- -----------
LPCM Audio English 1536 kbps 2.0 / 48 kHz / 1536 kbps / 16-bit
LPCM Audio English 1536 kbps 2.0 / 48 kHz / 1536 kbps / 16-bit
LPCM Audio English 1536 kbps 2.0 / 48 kHz / 1536 kbps / 16-bit
LPCM Audio English 2304 kbps 2.0 / 48 kHz / 2304 kbps / 24-bit

FILES:

Name Time In Length Size Total Bitrate
---- ------- ------ ---- -------------
00008.M2TS 0:00:00.000 0:00:33.033 43 124 736 10 444

CHAPTERS:

Number Time In Length Avg Video Rate Max 1-Sec Rate Max 1-Sec Time Max 5-Sec Rate Max 5-Sec Time Max 10Sec Rate Max 10Sec Time Avg Frame Size Max Frame Size Max Frame Time
------ ------- ------ -------------- -------------- -------------- -------------- -------------- -------------- -------------- -------------- -------------- --------------
1 0:00:00.000 0:00:33.033 2 277 kbps 8 576 kbps 00:00:22.622 3 835 kbps 00:00:21.020 3 350 kbps 00:00:22.522 9 497 bytes 183 505 bytes 00:00:30.030

STREAM DIAGNOSTICS:

File PID Type Codec Language Seconds Bitrate Bytes Packets
---- --- ---- ----- -------- -------------- -------------- ------------- -----
00008.M2TS 4113 (0x1011) 0x1B AVC 32,900 2 286 9 402 394 51 710
00008.M2TS 4352 (0x1100) 0x80 LPCM eng (English) 32,900 1 549 6 369 148 39 642
00008.M2TS 4353 (0x1101) 0x80 LPCM eng (English) 32,900 1 549 6 369 148 39 642
00008.M2TS 4354 (0x1102) 0x80 LPCM eng (English) 32,900 1 549 6 369 148 39 642
00008.M2TS 4355 (0x1103) 0x80 LPCM eng (English) 32,900 2 320 9 540 508 52 856
<---- END FORUMS PASTE ---->

QUICK SUMMARY:

Disc Title: TONY_BENNETT_DUETS_II
Disc Size: 22 576 620 708 bytes
Protection: AACS
BD-Java: No
Playlist: 00009.MPLS
Size: 43 124 736 bytes
Length: 0:00:33
Total Bitrate: 10,44 Mbps
Video: MPEG-4 AVC Video / 2277 kbps / 1080i / 29,970 fps / 16:9 / High Profile 4.1
Audio: English / LPCM Audio / 2.0 / 48 kHz / 1536 kbps / 16-bit
Audio: English / LPCM Audio / 2.0 / 48 kHz / 1536 kbps / 16-bit
Audio: English / LPCM Audio / 2.0 / 48 kHz / 1536 kbps / 16-bit
Audio: English / LPCM Audio / 2.0 / 48 kHz / 2304 kbps / 24-bit
Скриншоты видео
2012 Tony Bennett - Duets II The Great Performances [Blu-ray] 02012 Tony Bennett - Duets II The Great Performances [Blu-ray] 12012 Tony Bennett - Duets II The Great Performances [Blu-ray] 22012 Tony Bennett - Duets II The Great Performances [Blu-ray] 32012 Tony Bennett - Duets II The Great Performances [Blu-ray] 42012 Tony Bennett - Duets II The Great Performances [Blu-ray] 52012 Tony Bennett - Duets II The Great Performances [Blu-ray] 62012 Tony Bennett - Duets II The Great Performances [Blu-ray] 7
Download available for power users only.
579
11:06