Поиск

2023 Camilla George - at Elbjazz Festival [WEB-DL 1080p]

2023 Camilla George - at Elbjazz Festival [WEB-DL 1080p]
Стиль:
Главы (разбивка по трекам):
нет
Качество:
WEB-DL
Контейнер:
MP4
Состав:
  • Camilla George - saxophone
Видео:
AVC (h.264) / 1920x1080 / progressive / 16:9 / 1 901 kbps / 25.00 fps
Аудио#1:
AAC LC / 256kbps / constant / 48kHz / 2ch stereo
Описание:

Камилла Джордж, которую лондонская газета Evening Standard назвала "золотой девушкой джаза" после того, как в 2014 году ее дебютный альбом Isang получил положительную оценку, за прошедшие годы успела зарекомендовать себя в качестве яркого маяка на развивающейся джазовой сцене города. На фестивале Elbjazz вы сможете увидеть ее уникальное, провидческое слияние африканской и западной музыки.
Нигерийская саксофонистка Камилла Джордж выросла на музыке афробита Фелы Кутиса и звуках западного джаза. Прекрасная подготовка, наряду с обучением в лондонском Trinity College of Music, позволила ей стать одной из ведущих фигур новой лондонской джазовой сцены, для которой характерны акцент на импровизации, любовь к экспериментам и слияние джаза с другими жанрами. Третий студийный альбом Джордж Ibio-Ibio представляет собой смесь джаза и всевозможных влияний хип-хопа и соула. Однако эта работа — музыкальное "торжество корней", посвященное народу ибибио, к которому принадлежит и сама Джордж. В первом сингле с этого альбома, "Abasi Isang" — роскошном духовом пиршестве на фоне полиритмичных ударных, гитары и клавиш — ее страстная игра легко переключается между пышным афробитом и проникновенными джазовыми мелодиями, которые заражают своей высокой энергией и одновременно оказывают успокаивающее воздействие.

Дополнительная информация:

This video is available on our DC++ hub: dc.pro-jazz.com
Это видео доступно на нашем DC++ хабе: dc.pro-jazz.com

Отчёт DVDInfo/MediaInfo/BDInfo
Общее
Полное имя : \\Camilla George\2023 Camilla George - at Elbjazz Festival [WEB-DL 1080p].mp4
Формат : MPEG-4
Профиль формата : Base Media
Идентификатор кодека : isom (isom/iso2/avc1/mp41)
Размер файла : 858 Мбайт
Продолжительность : 55 м. 27 с.
Общий поток : 2 163 Кбит/сек
Частота кадров : 25,000 кадров/сек
HDVideo : Yes

Видео
Идентификатор : 1
Формат : AVC
Формат/Информация : Advanced Video Codec
Профиль формата : Main@L4
Настройки формата : CABAC / 4 Ref Frames
Параметр CABAC формата : Да
Параметр RefFrames формата : 4 кадра
Идентификатор кодека : avc1
Идентификатор кодека/Информация : Advanced Video Coding
Продолжительность : 55 м. 27 с.
Битрейт : 1 901 Кбит/сек
Ширина : 1 920 пикселей
Высота : 1 080 пикселей
Соотношение сторон : 16:9
Режим частоты кадров : Постоянный
Частота кадров : 25,000 кадров/сек
Цветовое пространство : YUV
Субдискретизация насыщенности : 4:2:0
Битовая глубина : 8 бит
Тип развёртки : Прогрессивная
Бит/(Пиксели*Кадры) : 0.037
Размер потока : 754 Мбайт (88%)
Библиотека кодирования : x264 core 164 r3095 baee400
Настройки программы : cabac=1 / ref=3 / deblock=1:0:0 / analyse=0x1:0x111 / me=hex / subme=8 / psy=1 / psy_rd=1.00:0.00 / mixed_ref=1 / me_range=16 / chroma_me=1 / trellis=2 / 8x8dct=0 / cqm=0 / deadzone=21,11 / fast_pskip=1 / chroma_qp_offset=-2 / threads=34 / lookahead_threads=5 / sliced_threads=0 / nr=0 / decimate=1 / interlaced=0 / bluray_compat=0 / constrained_intra=0 / bframes=3 / b_pyramid=2 / b_adapt=2 / b_bias=0 / direct=3 / weightb=1 / open_gop=0 / weightp=2 / keyint=100 / keyint_min=50 / scenecut=40 / intra_refresh=0 / rc_lookahead=50 / rc=abr / mbtree=1 / bitrate=1900 / ratetol=1.0 / qcomp=0.60 / qpmin=0 / qpmax=69 / qpstep=4 / vbv_maxrate=3800 / vbv_bufsize=7600 / nal_hrd=none / filler=0 / ip_ratio=1.40 / aq=1:1.00
Цветовой диапазон : Limited
Основные цвета : BT.709
Характеристики трансфера : BT.709
Коэффициенты матрицы : BT.709
Codec configuration box : avcC

Аудио
Идентификатор : 2
Формат : AAC LC
Формат/Информация : Advanced Audio Codec Low Complexity
Идентификатор кодека : mp4a-40-2
Продолжительность : 55 м. 27 с.
Вид битрейта : Постоянный
Битрейт : 256 Кбит/сек
Каналы : 2 канала
Channel layout : L R
Частота : 44,1 КГц
Частота кадров : 43,066 кадра/сек (1024 SPF)
Метод сжатия : С потерями
Размер потока : 102 Мбайт (12%)
Default : Да
Alternate group : 1
Any questions - projazzclub@gmail.com
574
Нет комментариев. Ваш будет первым!