Поиск

2022 Cecile McLorin Salvant - at Montreal Jazz Fest [HDTV 1080i]

2022 Cecile McLorin Salvant - at Montreal Jazz Fest [HDTV 1080i]
Стиль:
Дата проведения концерта (записи):
2 июля 2022
Место проведения:
Festival International de Jazz de Montréal, Monument national, Canada
Время звучания:
01:37:43
Главы (разбивка по трекам):
нет
Качество:
HDTV
Контейнер:
MP4
Состав:
  • Cecile Mclorin Salvant - vocals
  • Sullivan Fotner - piano
  • Marvin Sewell - guitar
  • Paul Sikivie - bass
  • Keita Ogawa - percussion
Видео:
AVC (h.264) / 1920*1080i / 16:9 / 3600 kbps / 25fps
Аудио#1:
AAC LC / VBR / 256kbps / 48kHz / 2ch stereo
Отчёт DVDInfo/MediaInfo/BDInfo
Общее
Полное имя : \\Cécile McLorin Salvant\2022 Cecile McLorin Salvant - at Montreal Jazz Fest [HDTV 1080i].mp4
Формат : MPEG-4
Профиль формата : Base Media
Идентификатор кодека : isom (isom/iso2/avc1/mp41)
Размер файла : 2,64 Гбайт
Продолжительность : 1 ч. 37 м.
Режим общего битрейта : Переменный
Общий поток : 3 867 Кбит/сек
Программа кодирования : VideoReDo (Lavf58.29.100)

Видео
Идентификатор : 1
Формат : AVC
Формат/Информация : Advanced Video Codec
Профиль формата : High@L4
Настройки формата : CABAC / 4 Ref Frames
Параметр CABAC формата : Да
Параметр RefFrames формата : 4 кадра
Параметр GOP формата : M=4, N=28
Идентификатор кодека : avc1
Идентификатор кодека/Информация : Advanced Video Coding
Продолжительность : 1 ч. 37 м.
Битрейт : 3 600 Кбит/сек
Ширина : 1 920 пикселей
Высота : 1 080 пикселей
Соотношение сторон : 16:9
Режим частоты кадров : Постоянный
Частота кадров : 50,000 кадров/сек
Частота кадров в оригинале : 25,000 кадров/сек
Стандарт вещания : Component
Цветовое пространство : YUV
Субдискретизация насыщенности : 4:2:0
Битовая глубина : 8 бит
Тип развёртки : Чересстрочная
Метод сохранения типа развёртки : Раздельные поля
Порядок развёртки : Верхнее поле первое
Бит/(Пиксели*Кадры) : 0.035
Размер потока : 2,46 Гбайт (93%)
Цветовой диапазон : Limited
Основные цвета : BT.709
Характеристики трансфера : BT.709
Коэффициенты матрицы : BT.709
Menus : 3
Codec configuration box : avcC

Аудио
Идентификатор : 2
Формат : AAC LC
Формат/Информация : Advanced Audio Codec Low Complexity
Идентификатор кодека : mp4a-40-2
Продолжительность : 1 ч. 37 м.
Duration_LastFrame : -21 мс.
Вид битрейта : Переменный
Битрейт : 253 Кбит/сек
Максимальный битрейт : 256 Кбит/сек
Каналы : 2 канала
Channel layout : L R
Частота : 48,0 КГц
Частота кадров : 46,875 кадров/сек (1024 SPF)
Метод сжатия : С потерями
Размер потока : 177 Мбайт (7%)
Язык : French
Default : Да
Alternate group : 1
Menus : 3

Меню #1
Идентификатор : 3
Формат : txet
Идентификатор кодека : txet
Продолжительность : 1 ч. 37 м.
Язык : English
Menu For : 1,2
Duration_LastFrame : -137000

Меню #2
00:00:00.000 : Chapter 1
00:05:00.000 : Chapter 2
00:10:00.000 : Chapter 3
00:15:00.000 : Chapter 4
00:20:00.000 : Chapter 5
00:25:00.000 : Chapter 6
00:30:00.000 : Chapter 7
00:35:00.000 : Chapter 8
00:40:00.000 : Chapter 9
00:45:00.000 : Chapter 10
00:50:00.000 : Chapter 11
00:55:00.000 : Chapter 12
01:00:00.000 : Chapter 13
01:05:00.000 : Chapter 14
01:10:00.000 : Chapter 15
01:15:00.000 : Chapter 16
01:20:00.000 : Chapter 17
01:25:00.000 : Chapter 18
01:30:00.000 : Chapter 19
01:35:00.000 : Chapter 20
По всем вопросам пишите личное сообщение пользователю M0p94ok.
81
Нет комментариев. Ваш будет первым!