Поиск

2022 Cécile McLorin Salvant - at Nancy Jazz Pulsation [WEB-DL 1080p]

2022 Cécile McLorin Salvant - at Nancy Jazz Pulsation [WEB-DL 1080p]
Стиль:
Место проведения:
Nancy Jazz Pulsations, Salle Poirel, Nancy, France
Время звучания:
00:54:52
Главы (разбивка по трекам):
нет
Качество:
WEB-DL
Контейнер:
MP4
Состав:
  • guitarist Marvin Sewell
  • bassist Paul Sikivie
  • percussionist Keita Ogawa
  • pianist Glenn Zaleski
Видео:
AVC (h.264) / 1920x1080 / progressive / 16:9 / 2 319 kbps / 25.00 fps
Аудио#1:
AAC LC / 256kbps / constant / 48kHz / 2ch stereo
Описание:

Концерт Сесиль МакЛорин Сальвант в зале Пуарель в Нанси (Франция) на фестивале Nancy Jazz Pulsations транслировался сегодня вечером в прямом эфире на канале ARTE. К ней присоединились гитарист Марвин Сьюэлл, басист Пол Сикиви и перкуссионист Кейта Огава — все они участвовали в ее дебютном альбоме Ghost Song, вышедшем на лейбле Nonesuch, а также пианист Гленн Залески.

Сальвант участвовал в программе BBC Radio 4 "Кейт Буш: The Power of Stranger Things", которую вела Энн Пауэрс. Она рассказала о песне Буш "Грозовой перевал" и о том, почему она решила записать ее в качестве вступительного трека к Ghost Song.

The New York Times называет Ghost Song "ее самым откровенным и полезным альбомом". Uncut говорит, что она "одна из самых смелых и изобретательных вокалисток в джазе — да и в любом другом жанре, если уж на то пошло". Arts Desk восклицает: "Сокровищница чудес, которой является Ghost Song, превосходит все ожидания".

Сальвант продолжает турне по Франции, Бельгии и Испании в октябре, а в ноябре возвращается в США. Все последние новости смотрите на сайте nonesuch.com/on-tour.

Сесиль Маклорин Сальвант — франко-американская джазовая певица, родившаяся в 1989 году в Майами, штат Флорида, и получившая первую премию на Международном конкурсе вокального джаза имени Телониуса Монка в 2010 году. Ее альбом "WomanChild" был номинирован на премию "Грэмми" в 2014 году, а за альбомы For One To Love в 2016 году и Dreams and Daggers в 2018 году она получила две награды в категории "вокальный джаз".

Франко-американка Сесиль Маклорин Сальван, ставшая новым голосом на международной сцене вокального джаза, была приглашена на 2022 год фестиваля Nancy Jazz Pulsations. Именно в возвышенной обстановке зала Пуареля в стиле модерн вокалистка предложит сет, в котором будут чередоваться ее собственные композиции и каверы с довольно неожиданными названиями (Курт Вейль, Стинг...).

Сесиль МакЛорин-Сальвант одинаково легко интерпретирует Великий американский песенник и смелые личные композиции, но на сцене она выглядит так же, как и в повседневной жизни: с серьезным видом (как и ее музыканты), который иногда пробивается через оживленную сторону этой талантливой тридцатилетней певицы. За маленькими круглыми очками эта певица с гаитянскими корнями угощает публику вокальным искусством безупречного мастерства. Мощный, органичный, порой даже театральный голос плавно переходит от сложной и ультраритмичной фразировки к старому ночному блюзу, как в этом блестящем кавере Бесси Смит ("Saint Louis Gal"), который она интерпретирует с помощью нескольких незаметных штрихов слайд-гитары.

Насыщенная ссылками, которые, как мы подозреваем, являются множественными, и с довольно потрясающим вокальным спектром, в сопровождении трио, которое идеально сочетает широту диапазона этой солидной джазовой певицы, мы говорим себе, что десять лет карьеры и награды, полученные здесь и там, были, возможно, только разогревом. Сесиль Маклорин-Сальвант еще не закончила с нами. Кто может пожаловаться на это?

** Жюльен Д- **

Дополнительная информация:

This video is available on our DC++ hub: dc.pro-jazz.com
Это видео доступно на нашем DC++ хабе: dc.pro-jazz.com

Отчёт DVDInfo/MediaInfo/BDInfo
Общее
Полное имя : \\Cécile McLorin Salvant\2022 Cécile McLorin Salvant - at Nancy Jazz Pulsation [WEB-DL 1080p].mp4
Формат : MPEG-4
Профиль формата : Base Media
Идентификатор кодека : isom (isom/iso2/avc1/mp41)
Размер файла : 910 Мбайт
Продолжительность : 54 м. 52 с.
Режим общего битрейта : Переменный
Общий поток : 2 319 Кбит/сек
Частота кадров : 25,000 кадров/сек
Программа кодирования : VideoReDo (Lavf58.29.100)

Видео
Идентификатор : 1
Формат : AVC
Формат/Информация : Advanced Video Codec
Профиль формата : Main@L4
Настройки формата : CABAC / 4 Ref Frames
Параметр CABAC формата : Да
Параметр RefFrames формата : 4 кадра
Идентификатор кодека : avc1
Идентификатор кодека/Информация : Advanced Video Coding
Продолжительность : 54 м. 52 с.
Битрейт : 2 052 Кбит/сек
Ширина : 1 920 пикселей
Высота : 1 080 пикселей
Соотношение сторон : 16:9
Режим частоты кадров : Постоянный
Частота кадров : 25,000 кадров/сек
Цветовое пространство : YUV
Субдискретизация насыщенности : 4:2:0
Битовая глубина : 8 бит
Тип развёртки : Прогрессивная
Бит/(Пиксели*Кадры) : 0.040
Размер потока : 805 Мбайт (88%)
Цветовой диапазон : Limited
Основные цвета : BT.709
Характеристики трансфера : BT.709
Коэффициенты матрицы : BT.709
Menus : 3
Codec configuration box : avcC

Аудио
Идентификатор : 2
Формат : AAC LC
Формат/Информация : Advanced Audio Codec Low Complexity
Идентификатор кодека : mp4a-40-2
Продолжительность : 54 м. 52 с.
Duration_LastFrame : -23 мс.
Вид битрейта : Переменный
Битрейт : 256 Кбит/сек
Каналы : 2 канала
Channel layout : L R
Частота : 44,1 КГц
Частота кадров : 43,066 кадра/сек (1024 SPF)
Метод сжатия : С потерями
Размер потока : 99,6 Мбайт (11%)
Язык : English
Default : Да
Alternate group : 1
Menus : 3

Меню #1
Идентификатор : 3
Формат : txet
Идентификатор кодека : txet
Продолжительность : 54 м. 52 с.
Язык : English
Menu For : 1,2
Duration_LastFrame : -7480

Меню #2
00:00:00.000 : Chapter 1
00:05:00.000 : Chapter 2
00:10:00.000 : Chapter 3
00:15:00.000 : Chapter 4
00:20:00.000 : Chapter 5
00:25:00.000 : Chapter 6
00:30:00.000 : Chapter 7
00:35:00.000 : Chapter 8
00:40:00.000 : Chapter 9
00:45:00.000 : Chapter 10
00:50:00.000 : Chapter 11
Any questions - support@pro-jazz.com
To become a power user - read FAQ.
129
Нет комментариев. Ваш будет первым!