Поиск

2022 Al Di Meola & SKO - at Jazzopen Stuttgart [WEB-DL 720p]

2022 Al Di Meola & SKO - at Jazzopen Stuttgart [WEB-DL 720p]
Дата проведения концерта (записи):
12 июля 2022
Время звучания:
01:10:45
Главы (разбивка по трекам):
нет
Качество:
WEB-DL
Контейнер:
MP4
Состав:
Видео:
AVC (h.264) / 1280*720p / 16x9 / 2 200kbps / 25fps
Аудио#1:
AAC LC / 256kbps / 48kHz / 2ch stereo
Описание:

Саксофонист Дэвид Сэнборн, джазовый певец Грегори Портер и Эл Ди Меола вышли на сцену вместе в живом выступлении 12 июля. На своем последнем альбоме Across The Universe, выпущенном в марте 2020 года, гитарист-виртуоз Меола вновь обратился к 14 композициям Beatles. В этом концерте он исполняет их в сопровождении Штутгартского камерного оркестра.

Отчёт DVDInfo/MediaInfo/BDInfo
Общее
Полное имя : \\Al Di Meola\2022 Al Di Meola & SKO - at Jazzopen Stuttgart [WEB-DL 720p].mp4
Формат : MPEG-4
Профиль формата : Base Media
Идентификатор кодека : isom (isom/iso2/avc1/mp41)
Размер файла : 1,22 Гбайт
Продолжительность : 1 ч. 10 м.
Режим общего битрейта : Переменный
Общий поток : 2 460 Кбит/сек
HDVideo : Yes

Видео
Идентификатор : 1
Формат : AVC
Формат/Информация : Advanced Video Codec
Профиль формата : Main@L3.1
Настройки формата : CABAC / 2 Ref Frames
Параметр CABAC формата : Да
Параметр RefFrames формата : 2 кадра
Параметр GOP формата : M=4, N=50
Идентификатор кодека : avc1
Идентификатор кодека/Информация : Advanced Video Coding
Продолжительность : 1 ч. 10 м.
Вид битрейта : Переменный
Битрейт : 2 200 Кбит/сек
Ширина : 1 280 пикселей
Высота : 720 пикселей
Соотношение сторон : 16:9
Режим частоты кадров : Постоянный
Частота кадров : 25,000 кадров/сек
Цветовое пространство : YUV
Субдискретизация насыщенности : 4:2:0
Битовая глубина : 8 бит
Тип развёртки : Прогрессивная
Бит/(Пиксели*Кадры) : 0.095
Размер потока : 1,09 Гбайт (89%)
Язык : English
Codec configuration box : avcC

Аудио
Идентификатор : 2
Формат : AAC LC
Формат/Информация : Advanced Audio Codec Low Complexity
Идентификатор кодека : mp4a-40-2
Продолжительность : 1 ч. 10 м.
Вид битрейта : Постоянный
Битрейт : 256 Кбит/сек
Каналы : 2 канала
Channel layout : L R
Частота : 44,1 КГц
Частота кадров : 43,066 кадра/сек (1024 SPF)
Метод сжатия : С потерями
Размер потока : 130 Мбайт (10%)
Default : Да
Alternate group : 1
По всем вопросам пишите личное сообщение пользователю M0p94ok.
177
Нет комментариев. Ваш будет первым!