Вы используете незарегистрированную версию компонента "Вкладки"!

Поиск

2021 VA - Highlights of Elbjazz Festival [Web-DL 720p]

2021 VA - Highlights of Elbjazz Festival [Web-DL 720p]
Дата проведения концерта (записи):
4 июня - 5 июня 2021
Место проведения:
Hamburg, Germany
Главы (разбивка по трекам):
нет
Качество:
WEB-DL
Контейнер:
MP4
Состав:
  • China Moses
  • Nils Landgren
  • Salvador Sobral
  • Michelle David & The True-tones
  • quartet Masaa
  • The Notwist
  • Verneri Pohjola.
Видео:
AVC (h.264) / 1280*720p / 16x9 / 2 200Mbps / 25fps
Аудио#1:
AAC-LC / 125-159 Kbps VBR / 48.0 KHz / 2 ch stereo
Описание:

Основные моменты гамбургского фестиваля Elbjazz Festival 2021, 100% цифровое издание: Американская соул-дива Чайна Мозес, шведский тромбонист и певец Нильс Ландгрен, португальский певец Сальвадор Собрал, группа Michelle David & The True-tones, квартет Masaa, электро-рок-джаз группа The Notwist и финский трубач Вернери Похьола.

Отчёт DVDInfo/MediaInfo/BDInfo
Общее
Полное имя : \\2021 VA - Highlights of Elbjazz Festival [Web-DL 720p].mp4
Формат : MPEG-4
Профиль формата : Base Media / Version 2
Идентификатор кодека : mp42 (isom/mp42)
Размер файла : 1,21 Гбайт
Продолжительность : 1 ч. 14 м.
Режим общего битрейта : Переменный
Общий поток : 2 323 Кбит/сек
Дата кодирования : UTC 2022-04-29 04:53:28
Дата пометки : UTC 2022-04-29 04:53:28

Видео
Идентификатор : 1
Формат : AVC
Формат/Информация : Advanced Video Codec
Профиль формата : Main@L3.1
Настройки формата : CABAC / 3 Ref Frames
Параметр CABAC формата : Да
Параметр RefFrames формата : 3 кадра
Параметр GOP формата : M=4, N=50
Идентификатор кодека : avc1
Идентификатор кодека/Информация : Advanced Video Coding
Продолжительность : 1 ч. 14 м.
Вид битрейта : Переменный
Битрейт : 2 200 Кбит/сек
Ширина : 1 280 пикселей
Высота : 720 пикселей
Соотношение сторон : 16:9
Режим частоты кадров : Постоянный
Частота кадров : 25,000 кадров/сек
Стандарт вещания : PAL
Цветовое пространство : YUV
Субдискретизация насыщенности : 4:2:0
Битовая глубина : 8 бит
Тип развёртки : Прогрессивная
Бит/(Пиксели*Кадры) : 0.095
Размер потока : 1,14 Гбайт (94%)
Дата кодирования : UTC 2022-04-29 04:53:30
Дата пометки : UTC 2022-04-29 04:53:30
Цветовой диапазон : Limited
Основные цвета : BT.709
Характеристики трансфера : BT.709
Коэффициенты матрицы : BT.709
Codec configuration box : avcC

Аудио
Идентификатор : 2
Формат : AAC LC
Формат/Информация : Advanced Audio Codec Low Complexity
Идентификатор кодека : mp4a-40-2
Продолжительность : 1 ч. 14 м.
Вид битрейта : Переменный
Битрейт : 125 Кбит/сек
Максимальный битрейт : 159 Кбит/сек
Каналы : 2 канала
Channel layout : L R
Частота : 48,0 КГц
Частота кадров : 46,875 кадров/сек (1024 SPF)
Метод сжатия : С потерями
Размер потока : 66,8 Мбайт (5%)
Дата кодирования : UTC 2022-04-29 04:53:30
Дата пометки : UTC 2022-04-29 04:53:30
По всем вопросам пишите личное сообщение пользователю M0p94ok.
98
Нет комментариев. Ваш будет первым!