Поиск

2021 Shai Maestro - Human at Nancy Jazz Pulsations [WEB-DL 720p]

2021 Shai Maestro - Human at Nancy Jazz Pulsations [WEB-DL 720p]
Стиль:
Время звучания:
01:01:56
Главы (разбивка по трекам):
нет
Качество:
WEB-DL
Контейнер:
MP4
Состав:
  •     Shai Maestro (pinao)
  •     Jorge Roeder (Cb)
  •     Philip Dizack (Tp)
  •     Ofri Nehemya (Ds)
Треклист:

01. Human
02. From One Soul To Another
03. In A Sentimental Mood
04. GG
05. A Minor
06. The Thief's Dream
07. The Queen
08. Mystery And Illusions
09. Ima

Видео:
AVC (h.264) / 1280*720p / 16x9 / 2 200kbps / 25fps
Аудио#1:
AAC LC / 125-150kbps / 48kHz / 2ch stereo
Описание:

Пианист Шай Маэстро исполняет свой последний альбом Human на фестивале Nancy Jazz Pulsations. К нему присоединяются трубач Филипп Дизак, контрабасист Хорхе Редер и барабанщик Офри Нехемья.

Отчёт DVDInfo/MediaInfo/BDInfo
Общее
Полное имя : \\Shai Maestro\2021 Shai Maestro - Human at Nancy Jazz Pulsations [WEB-DL 720p].mp4
Формат : MPEG-4
Профиль формата : Base Media / Version 2
Идентификатор кодека : mp42 (isom/mp42)
Размер файла : 1,02 Гбайт
Продолжительность : 1 ч. 2 м.
Режим общего битрейта : Переменный
Общий поток : 2 324 Кбит/сек
Дата кодирования : UTC 2021-12-21 16:50:00
Дата пометки : UTC 2021-12-21 16:50:00

Видео
Идентификатор : 1
Формат : AVC
Формат/Информация : Advanced Video Codec
Профиль формата : Main@L3.1
Настройки формата : CABAC / 3 Ref Frames
Параметр CABAC формата : Да
Параметр RefFrames формата : 3 кадра
Идентификатор кодека : avc1
Идентификатор кодека/Информация : Advanced Video Coding
Продолжительность : 1 ч. 2 м.
Вид битрейта : Переменный
Битрейт : 2 200 Кбит/сек
Ширина : 1 280 пикселей
Высота : 720 пикселей
Соотношение сторон : 16:9
Режим частоты кадров : Постоянный
Частота кадров : 25,000 кадров/сек
Стандарт вещания : PAL
Цветовое пространство : YUV
Субдискретизация насыщенности : 4:2:0
Битовая глубина : 8 бит
Тип развёртки : Прогрессивная
Бит/(Пиксели*Кадры) : 0.095
Размер потока : 988 Мбайт (94%)
Дата кодирования : UTC 2021-12-21 16:50:02
Дата пометки : UTC 2021-12-21 16:50:02
Цветовой диапазон : Limited
Основные цвета : BT.709
Характеристики трансфера : BT.709
Коэффициенты матрицы : BT.709
Codec configuration box : avcC

Аудио
Идентификатор : 2
Формат : AAC LC
Формат/Информация : Advanced Audio Codec Low Complexity
Идентификатор кодека : mp4a-40-2
Продолжительность : 1 ч. 2 м.
Вид битрейта : Переменный
Битрейт : 125 Кбит/сек
Максимальный битрейт : 152 Кбит/сек
Каналы : 2 канала
Channel layout : L R
Частота : 48,0 КГц
Частота кадров : 46,875 кадров/сек (1024 SPF)
Метод сжатия : С потерями
Размер потока : 56,4 Мбайт (5%)
Дата кодирования : UTC 2021-12-21 16:50:02
Дата пометки : UTC 2021-12-21 16:50:02
По всем вопросам пишите личное сообщение пользователю M0p94ok.
87
Нет комментариев. Ваш будет первым!