Поиск

2021 Kyle Eastwood - at Jazz a Vienne [HDTV 1080i]

2021 Kyle Eastwood - at Jazz a Vienne [HDTV 1080i]
Дата проведения концерта (записи):
30 июня 2021
Место проведения:
Theatre Antique, Vienne
Время звучания:
01:02:51
Главы (разбивка по трекам):
есть
Качество:
HDTV
Контейнер:
MP4
Состав:
  • Kyle Eastwood (cb, b)
  • Hugh Coltman (v)
  • Camille Bertault (v)
  • Andrew McCormack (p)
  • Quentin Collins (t, bugle)
  • Brandon Allen (s)
  • Chris Higginbottom (dms)
Видео:
AVC (h.264) / 1920*1080i / 16:9 / 5051kbps / 25fps
Аудио#1:
MPEG Audio layer 2/ 256kps Constant / 48 kHz / 2.0 stereo
Источник:
собственная запись
Описание:

Как и в случае с Томасом Дютронком, непреходящая страсть Кайла Иствуда — к музыке и кино — естественным образом проистекает из его семьи. Хотя в его карьеру также входило актерское мастерство, и одно время он даже думал о режиссуре, он решил посвятить свою жизнь музыке, а точнее, джазу, который питал его по крайней мере столько же, сколько и седьмое искусство. Регулярно пополняя свою дискографию в качестве ведущего или сайдмена, он вместе со своим отцом сочинил или участвовал в ряде оригинальных саундтреков: Million Dollar Baby, Gran Torino, Invictus… Неудивительно, что его последний альбом Cinematic, в котором он пересматривает свою любимую музыку из фильмов, это праздник двух великих артистических любовных увлечений в его жизни. В этом карт-бланш Кайл Иствуд будет сопровождать свой квинтет, а также два певца, которые помогли создать лучший альбом Cinematic Eastwood на сегодняшний день: Хью Колтман, исполнивший изысканную версию темы Gran Torino, и Камилла Берто, чей тонкий кавер на песню «Moulins de mon Cœur» Мишеля Леграна — одна из ярких точек альбома.

Отчёт DVDInfo/MediaInfo/BDInfo
Общее
Полное имя : \\Nasf8f4eb\3\K\Kyle Eastwood\2021 Kyle Eastwood - at Jazz a Vienne [HDTV 1080i].mp4
Формат : MPEG-4
Профиль формата : Base Media
Идентификатор кодека : isom (isom/iso2/avc1/mp41)
Размер файла : 2,34 Гбайт
Продолжительность : 1 ч. 2 м.
Общий поток : 5 320 Кбит/сек
Программа кодирования : VideoReDo (Lavf58.29.100)

Видео
Идентификатор : 1
Формат : AVC
Формат/Информация : Advanced Video Codec
Профиль формата : High@L4
Настройки формата : CABAC / 4 Ref Frames
Параметр CABAC формата : Да
Параметр RefFrames формата : 4 кадра
Параметр GOP формата : M=4, N=28
Идентификатор кодека : avc1
Идентификатор кодека/Информация : Advanced Video Coding
Продолжительность : 1 ч. 2 м.
Битрейт : 5 051 Кбит/сек
Ширина : 1 920 пикселей
Высота : 1 080 пикселей
Соотношение сторон : 16:9
Режим частоты кадров : Постоянный
Частота кадров : 50,000 кадров/сек
Частота кадров в оригинале : 25,000 кадров/сек
Стандарт вещания : Component
Цветовое пространство : YUV
Субдискретизация насыщенности : 4:2:0
Битовая глубина : 8 бит
Тип развёртки : Чересстрочная
Метод сохранения типа развёртки : Раздельные поля
Порядок развёртки : Верхнее поле первое
Бит/(Пиксели*Кадры) : 0.049
Размер потока : 2,22 Гбайт (95%)
Цветовой диапазон : Limited
Основные цвета : BT.709
Характеристики трансфера : BT.709
Коэффициенты матрицы : BT.709
Menus : 3
Codec configuration box : avcC

Аудио
Идентификатор : 2
Формат : MPEG Audio
Версия формата : Version 1
Профиль формата : Layer 2
Идентификатор кодека : mp4a-6B
Продолжительность : 1 ч. 2 м.
Вид битрейта : Постоянный
Битрейт : 256 Кбит/сек
Каналы : 2 канала
Частота : 48,0 КГц
Метод сжатия : С потерями
Размер потока : 115 Мбайт (5%)
Язык : French
Default : Да
Alternate group : 1
Menus : 3

Меню #1
Идентификатор : 3
Идентификатор кодека : txet
Продолжительность : 1 ч. 2 м.
Язык : English
Menu For : 1,2
Duration_LastFrame : -128440

Меню #2
00:00:00.000 : Chapter 1
00:05:00.000 : Chapter 2
00:10:00.000 : Chapter 3
00:15:00.000 : Chapter 4
00:20:00.000 : Chapter 5
00:25:00.000 : Chapter 6
00:30:00.000 : Chapter 7
00:35:00.000 : Chapter 8
00:40:00.000 : Chapter 9
00:45:00.000 : Chapter 10
00:50:00.000 : Chapter 11
00:55:00.000 : Chapter 12
01:00:00.000 : Chapter 13
No seeders - write a personal message to M0p94ok. Any questions - support@pro-jazz.com.
Нет сидеров - пишите в личку M0p94ok. Есть вопросы - support@pro-jazz.com
164
Нет комментариев. Ваш будет первым!