Поиск

2021 Jokers - at Le Comptoir General [HDTV 1080i]

2021 Jokers - at Le Comptoir General [HDTV 1080i]
Состав:
  • Federico Casagrande - guitare
  • Vincent Peirani - accordeon
  • Ziv Ravitz - batterie
Дата проведения концерта (записи):
5 января 2021
Место проведения:
Le Comptoir General, Paris, France
Время звучания:
00:45:35
Главы (разбивка по трекам):
нет
Качество:
HDTV
Контейнер:
MP4
Видео:
AVC (h.264) / 1920*1080i / 16:9 / 3661kbps / 25fps
Аудио#1:
MPEG Audio layer 2/ 256kps Constant / 48 kHz / 2.0 stereo
Отчёт DVDInfo/MediaInfo/BDInfo
Общее
Полное имя : \\2021 Jokers - Le Comptoir General at Jazz a Vienne [HDTV 1080i].mp4
Формат : MPEG-4
Профиль формата : Base Media
Идентификатор кодека : isom (isom/iso2/avc1/mp41)
Размер файла : 1,25 Гбайт
Продолжительность : 46 м. 4 с.
Общий поток : 3 889 Кбит/сек
Программа кодирования : VideoReDo (Lavf58.29.100)

Видео
Идентификатор : 1
Формат : AVC
Формат/Информация : Advanced Video Codec
Профиль формата : High@L4
Настройки формата : CABAC / 4 Ref Frames
Параметр CABAC формата : Да
Параметр RefFrames формата : 4 кадра
Идентификатор кодека : avc1
Идентификатор кодека/Информация : Advanced Video Coding
Продолжительность : 45 м. 35 с.
Битрейт : 3 661 Кбит/сек
Ширина : 1 920 пикселей
Высота : 1 080 пикселей
Соотношение сторон : 16:9
Режим частоты кадров : Постоянный
Частота кадров : 50,000 кадров/сек
Частота кадров в оригинале : 25,000 кадров/сек
Стандарт вещания : Component
Цветовое пространство : YUV
Субдискретизация насыщенности : 4:2:0
Битовая глубина : 8 бит
Тип развёртки : Чересстрочная
Метод сохранения типа развёртки : Раздельные поля
Порядок развёртки : Верхнее поле первое
Бит/(Пиксели*Кадры) : 0.035
Размер потока : 1,17 Гбайт (93%)
Цветовой диапазон : Limited
Основные цвета : BT.709
Характеристики трансфера : BT.709
Коэффициенты матрицы : BT.709
Menus : 3
Codec configuration box : avcC

Аудио
Идентификатор : 2
Формат : MPEG Audio
Версия формата : Version 1
Профиль формата : Layer 2
Идентификатор кодека : mp4a-6B
Продолжительность : 45 м. 35 с.
Вид битрейта : Постоянный
Битрейт : 256 Кбит/сек
Каналы : 2 канала
Частота : 48,0 КГц
Метод сжатия : С потерями
Размер потока : 83,5 Мбайт (7%)
Язык : French
Default : Да
Alternate group : 1
Menus : 3

Меню #1
Идентификатор : 3
Идентификатор кодека : txet
Продолжительность : 46 м. 4 с.
Язык : English
Menu For : 1,2
Duration_LastFrame : -235480

Меню #2
00:00:00.000 : Chapter 1
00:05:00.000 : Chapter 2
00:10:00.000 : Chapter 3
00:15:00.000 : Chapter 4
00:20:00.000 : Chapter 5
00:25:00.000 : Chapter 6
00:30:00.000 : Chapter 7
00:35:00.000 : Chapter 8
00:40:00.000 : Chapter 9
00:45:00.000 : Chapter 10
No seeders - write a personal message to M0p94ok. Any questions - support@pro-jazz.com.
Нет сидеров - пишите в личку M0p94ok. Есть вопросы - support@pro-jazz.com
18
Нет комментариев. Ваш будет первым!