Поиск

2021 Avishai Cohen Trio - Shifting Sands at the Maillon Theatre, Strasbourg [WEB-DL 720p]

2021 Avishai Cohen Trio - Shifting Sands at the Maillon Theatre, Strasbourg [WEB-DL 720p]
Стиль:
Место проведения:
Maillon Theatre, Strasbourg
Время звучания:
01:02:00
Главы (разбивка по трекам):
нет
Качество:
WEB-DL
Контейнер:
MP4
Состав:
  •     Avishai Cohen (contrebasse, chant)
  •     Elchin Shirinov (piano)
  •     Roni Kaspi (batterie)
Треклист:
  1. The Window
  2. Below
  3. Interwined
  4. Shifting Sands
  5. Joy
  6. Dvash
  7. Video Game
  8. Hitragut
  9. Cha Cha Rom
  10. Remembering
Видео:
AVC (h.264) / 1280*720p / 16x9 / 2 200kbps / 25fps
Аудио#1:
AAC LC / 125-150kbps / 48kHz / 2ch stereo
Описание:

Всемирно известный бас-гитарист, певец и композитор Авишай Коэн выступает в эксклюзивном концерте из театра Maillon в Страсбурге. В сопровождении барабанщика Рони Каспи и пианиста Эльчина Ширинова джазмен представляет свой предстоящий альбом Shifting Sands.

Отчёт DVDInfo/MediaInfo/BDInfo
Общее
Полное имя : \\Avishai Cohen (b)\2021 Avishai Cohen Trio - Shifting Sands at the Maillon Theatre, Strasbourg [WEB-DL 720p].mp4
Формат : MPEG-4
Профиль формата : Base Media / Version 2
Идентификатор кодека : mp42 (isom/mp42)
Размер файла : 1,01 Гбайт
Продолжительность : 1 ч. 2 м.
Режим общего битрейта : Переменный
Общий поток : 2 304 Кбит/сек
Дата кодирования : UTC 2022-04-28 03:31:54
Дата пометки : UTC 2022-04-28 03:31:54

Видео
Идентификатор : 1
Формат : AVC
Формат/Информация : Advanced Video Codec
Профиль формата : Main@L3.1
Настройки формата : CABAC / 3 Ref Frames
Параметр CABAC формата : Да
Параметр RefFrames формата : 3 кадра
Параметр GOP формата : M=4, N=50
Идентификатор кодека : avc1
Идентификатор кодека/Информация : Advanced Video Coding
Продолжительность : 1 ч. 2 м.
Вид битрейта : Переменный
Битрейт : 2 174 Кбит/сек
Максимальный битрейт : 2 200 Кбит/сек
Ширина : 1 280 пикселей
Высота : 720 пикселей
Соотношение сторон : 16:9
Режим частоты кадров : Постоянный
Частота кадров : 25,000 кадров/сек
Стандарт вещания : PAL
Цветовое пространство : YUV
Субдискретизация насыщенности : 4:2:0
Битовая глубина : 8 бит
Тип развёртки : Прогрессивная
Бит/(Пиксели*Кадры) : 0.094
Размер потока : 974 Мбайт (94%)
Дата кодирования : UTC 2022-04-28 03:31:57
Дата пометки : UTC 2022-04-28 03:31:57
Цветовой диапазон : Limited
Основные цвета : BT.709
Характеристики трансфера : BT.709
Коэффициенты матрицы : BT.709
Codec configuration box : avcC

Аудио
Идентификатор : 2
Формат : AAC LC
Формат/Информация : Advanced Audio Codec Low Complexity
Идентификатор кодека : mp4a-40-2
Продолжительность : 1 ч. 2 м.
Вид битрейта : Переменный
Битрейт : 125 Кбит/сек
Максимальный битрейт : 152 Кбит/сек
Каналы : 2 канала
Channel layout : L R
Частота : 48,0 КГц
Частота кадров : 46,875 кадров/сек (1024 SPF)
Метод сжатия : С потерями
Размер потока : 56,2 Мбайт (5%)
Дата кодирования : UTC 2022-04-28 03:31:57
Дата пометки : UTC 2022-04-28 03:31:57
По всем вопросам пишите личное сообщение пользователю M0p94ok.
103
Нет комментариев. Ваш будет первым!