Вы используете незарегистрированную версию компонента "Вкладки"!

Поиск

2021 Avishai Cohen Trio - at Jazz a Vienne [HDTV 1080i]

2021 Avishai Cohen Trio - at Jazz a Vienne [HDTV 1080i]
Дата проведения концерта (записи):
5 июля 2021
Место проведения:
Theatre Antique, Vienne
Время звучания:
01:35:51
Главы (разбивка по трекам):
нет
Качество:
HDTV
Контейнер:
MP4
Состав:
  • Avishai Cohen (Bass)
  • Elchin Shirinov (Piano)
  • Roni Kaspi (Drums)
Видео:
AVC (h.264) / 1920*1080i / 16:9 / 4962kbps / 25fps
Аудио#1:
MPEG Audio layer 2/ 256kps Constant / 48 kHz / 2.0 stereo
Отчёт DVDInfo/MediaInfo/BDInfo
Общее
Полное имя : \\2021 Avishai Cohen Trio - at Jazz a Vienne Live [HDTV 1080i].mp4
Формат : MPEG-4
Профиль формата : Base Media
Идентификатор кодека : isom (isom/iso2/avc1/mp41)
Размер файла : 3,32 Гбайт
Продолжительность : 1 ч. 35 м.
Общий поток : 4 962 Кбит/сек
Программа кодирования : VideoReDo (Lavf58.29.100)

Видео
Идентификатор : 1
Формат : AVC
Формат/Информация : Advanced Video Codec
Профиль формата : High@L4
Настройки формата : CABAC / 4 Ref Frames
Параметр CABAC формата : Да
Параметр RefFrames формата : 4 кадра
Параметр GOP формата : M=4, N=28
Идентификатор кодека : avc1
Идентификатор кодека/Информация : Advanced Video Coding
Продолжительность : 1 ч. 35 м.
Битрейт : 4 694 Кбит/сек
Ширина : 1 920 пикселей
Высота : 1 080 пикселей
Соотношение сторон : 16:9
Режим частоты кадров : Постоянный
Частота кадров : 50,000 кадров/сек
Частота кадров в оригинале : 25,000 кадров/сек
Стандарт вещания : Component
Цветовое пространство : YUV
Субдискретизация насыщенности : 4:2:0
Битовая глубина : 8 бит
Тип развёртки : Чересстрочная
Метод сохранения типа развёртки : Раздельные поля
Порядок развёртки : Верхнее поле первое
Бит/(Пиксели*Кадры) : 0.045
Размер потока : 3,14 Гбайт (95%)
Цветовой диапазон : Limited
Основные цвета : BT.709
Характеристики трансфера : BT.709
Коэффициенты матрицы : BT.709
Menus : 3
Codec configuration box : avcC

Аудио
Идентификатор : 2
Формат : MPEG Audio
Версия формата : Version 1
Профиль формата : Layer 2
Идентификатор кодека : mp4a-6B
Продолжительность : 1 ч. 35 м.
Вид битрейта : Постоянный
Битрейт : 256 Кбит/сек
Каналы : 2 канала
Частота : 48,0 КГц
Метод сжатия : С потерями
Размер потока : 176 Мбайт (5%)
Язык : French
Default : Да
Alternate group : 1
Menus : 3

Меню #1
Идентификатор : 3
Идентификатор кодека : txet
Продолжительность : 1 ч. 35 м.
Язык : English
Menu For : 1,2
Duration_LastFrame : -248400

Меню #2
00:00:00.000 : Chapter 1
00:05:00.000 : Chapter 2
00:10:00.000 : Chapter 3
00:15:00.000 : Chapter 4
00:20:00.000 : Chapter 5
00:25:00.000 : Chapter 6
00:30:00.000 : Chapter 7
00:35:00.000 : Chapter 8
00:40:00.000 : Chapter 9
00:45:00.000 : Chapter 10
00:50:00.000 : Chapter 11
00:55:00.000 : Chapter 12
01:00:00.000 : Chapter 13
01:05:00.000 : Chapter 14
01:10:00.000 : Chapter 15
01:15:00.000 : Chapter 16
01:20:00.000 : Chapter 17
01:25:00.000 : Chapter 18
01:30:00.000 : Chapter 19
01:35:00.000 : Chapter 20
Any questions - support@pro-jazz.com. Есть вопросы - support@pro-jazz.com
220
Нет комментариев. Ваш будет первым!