Вы используете незарегистрированную версию компонента "Вкладки"!

Поиск

2021 Ana Carla Maza Quartet - Bahia Tour [HDTV 1080i]

2021 Ana Carla Maza Quartet - Bahia Tour [HDTV 1080i]
Дата проведения концерта (записи):
10 сентября 2021
Место проведения:
Abbaye de l'Epau, Le Mans, France
Время звучания:
00:44:37
Главы (разбивка по трекам):
нет
Качество:
HDTV
Контейнер:
MP4
Состав:
  • Roger Mas (Piano)
  • Marc Ayza (Drums)
  • Luis Guerra (Percussion)
  • Maza Ana Carla (Cello)
Треклист:

1. Contradanza
2. Quelque Chose
3. Bahia
4. Huayno
5. A Piazzolla
6. A Tomar Cafe
7. Tango Y Cuba

Видео:
AVC (h264) / 1920x1080i / 16:9 / 5450kbps / 25fps
Аудио#1:
AAC LC / 256kbps / 48kHz / 2ch stereo
Отчёт DVDInfo/MediaInfo/BDInfo
Полное имя : \\Ana Carla Maza\2021 Ana Carla Maza Quartet - Bahia Tour [HDTV 1080i].mp4
Формат : MPEG-4
Профиль формата : Base Media
Идентификатор кодека : isom (isom/iso2/avc1/mp41)
Размер файла : 1,78 Гбайт
Продолжительность : 44 м. 37 с.
Режим общего битрейта : Переменный
Общий поток : 5 718 Кбит/сек
Программа кодирования : VideoReDo (Lavf58.29.100)

Видео
Идентификатор : 1
Формат : AVC
Формат/Информация : Advanced Video Codec
Профиль формата : High@L4
Настройки формата : CABAC / 4 Ref Frames
Параметр CABAC формата : Да
Параметр RefFrames формата : 4 кадра
Идентификатор кодека : avc1
Идентификатор кодека/Информация : Advanced Video Coding
Продолжительность : 44 м. 37 с.
Битрейт : 5 450 Кбит/сек
Ширина : 1 920 пикселей
Высота : 1 080 пикселей
Соотношение сторон : 16:9
Режим частоты кадров : Постоянный
Частота кадров : 50,000 кадров/сек
Частота кадров в оригинале : 25,000 кадров/сек
Стандарт вещания : Component
Цветовое пространство : YUV
Субдискретизация насыщенности : 4:2:0
Битовая глубина : 8 бит
Тип развёртки : Чересстрочная
Метод сохранения типа развёртки : Раздельные поля
Порядок развёртки : Верхнее поле первое
Бит/(Пиксели*Кадры) : 0.053
Размер потока : 1,70 Гбайт (95%)
Цветовой диапазон : Limited
Основные цвета : BT.709
Характеристики трансфера : BT.709
Коэффициенты матрицы : BT.709
Menus : 3
Codec configuration box : avcC

Аудио
Идентификатор : 2
Формат : AAC LC
Формат/Информация : Advanced Audio Codec Low Complexity
Идентификатор кодека : mp4a-40-2
Продолжительность : 44 м. 37 с.
Duration_LastFrame : -21 мс.
Вид битрейта : Переменный
Битрейт : 253 Кбит/сек
Максимальный битрейт : 256 Кбит/сек
Каналы : 2 канала
Channel layout : L R
Частота : 48,0 КГц
Частота кадров : 46,875 кадров/сек (1024 SPF)
Метод сжатия : С потерями
Размер потока : 80,9 Мбайт (4%)
Язык : French
Default : Да
Alternate group : 1
Menus : 3

Меню #1
Идентификатор : 3
Формат : txet
Идентификатор кодека : txet
Продолжительность : 44 м. 37 с.
Язык : English
Вид битрейта : CBR
Menu For : 1,2
Duration_LastFrame : -22200
Вид битрейта : Постоянный

Меню #2
00:00:00.000 : Chapter 1
00:05:00.000 : Chapter 2
00:10:00.000 : Chapter 3
00:15:00.000 : Chapter 4
00:20:00.000 : Chapter 5
00:25:00.000 : Chapter 6
00:30:00.000 : Chapter 7
00:35:00.000 : Chapter 8
00:40:00.000 : Chapter 9
Any questions - support@pro-jazz.com.
Есть вопросы - support@pro-jazz.com
53
Нет комментариев. Ваш будет первым!