Вы используете незарегистрированную версию компонента "Вкладки"!

Поиск

2020 Rokia Traore - Mandeka Classics at UNESCO [HDTV 1080i]

2020 Rokia Traore - Mandeka Classics at UNESCO [HDTV 1080i]
Дата проведения концерта (записи):
20 января 2020
Место проведения:
UNESCO-Haus, Paris, France
Время звучания:
00:48:40
Главы (разбивка по трекам):
есть
Качество:
HDTV
Контейнер:
MP4
Состав:
  • Samba Diabaté (guitar)
  • Habib Sangaré (bolon)
  • Mamah Diabaté (n’goni)
  • Joel Massa Diarra (balafon)
  • Rokia Traoré (vocals, arrangements, direction)
Видео:
AVC (h.264) / 1920:1080i / 1 : 1.78 (16:9) / 3 445 kbps / 25fps
Аудио#1:
AAC LC / 256kbps / Constant / 48kHz / 2ch stereo
Описание:

У Рокиа Траоре один из самых красивых голосов в Мали. Этот исключительный статус позволяет этой увлеченной художнице распространять свои гуманистические идеалы и традиции гриота по всему миру. Мы снова встречаемся с певицей в Доме ЮНЕСКО на концерте, который перенесёт нас в самое сердце страны Мандинго. Малийская артистка пользуется случаем, чтобы представить концерт под названием «Mandeka Classics».
В сопровождении Самбы Диабате (гитара), Хабиба Сангаре (болон), Мамаха Диабате (н'гони) и Джоэля Масса Диарра (балафон), Рокия Траоре исполняет самые красивые песни мандека, эти произведения, которые ретранслируют в музыке историю Империи Мандинка. Великая классика и популярные хиты обретают здесь чистейшую форму. Рокия Траоре и её музыканты возвращаются к истокам каждого произведения, чтобы вернуть его в исторический и художественный контекст.

Отчёт DVDInfo/MediaInfo/BDInfo
Общее
Полное имя : \\Nasf8f4eb\6\R\Rokia Traore\2020 Rokia Traore - Mandeka Classics at UNESCO [HDTV 1080i].mp4
Формат : MPEG-4
Профиль формата : Base Media
Идентификатор кодека : isom (isom/iso2/avc1/mp41)
Размер файла : 1,26 Гбайт
Продолжительность : 48 м. 40 с.
Режим общего битрейта : Переменный
Общий поток : 3 712 Кбит/сек
Программа кодирования : VideoReDo (Lavf57.71.100)

Видео
Идентификатор : 1
Формат : AVC
Формат/Информация : Advanced Video Codec
Профиль формата : High@L4
Настройки формата : CABAC / 4 Ref Frames
Параметр CABAC формата : Да
Параметр RefFrames формата : 4 кадра
Параметр GOP формата : M=4, N=28
Идентификатор кодека : avc1
Идентификатор кодека/Информация : Advanced Video Coding
Продолжительность : 48 м. 40 с.
Битрейт : 3 445 Кбит/сек
Ширина : 1 920 пикселей
Высота : 1 080 пикселей
Соотношение сторон : 16:9
Режим частоты кадров : Постоянный
Частота кадров : 50,000 кадров/сек
Частота кадров в оригинале : 25,000 кадров/сек
Стандарт вещания : Component
Цветовое пространство : YUV
Субдискретизация насыщенности : 4:2:0
Битовая глубина : 8 бит
Тип развёртки : Чересстрочная
Метод сохранения типа развёртки : Раздельные поля
Порядок развёртки : Верхнее поле первое
Бит/(Пиксели*Кадры) : 0.033
Размер потока : 1,17 Гбайт (93%)
Цветовой диапазон : Limited
Основные цвета : BT.709
Характеристики трансфера : BT.709
Коэффициенты матрицы : BT.709
Menus : 3
Codec configuration box : avcC

Аудио
Идентификатор : 2
Формат : AAC LC
Формат/Информация : Advanced Audio Codec Low Complexity
Идентификатор кодека : mp4a-40-2
Продолжительность : 48 м. 40 с.
Duration_LastFrame : -21 мс.
Вид битрейта : Переменный
Битрейт : 253 Кбит/сек
Максимальный битрейт : 256 Кбит/сек
Каналы : 2 канала
Channel layout : L R
Частота : 48,0 КГц
Частота кадров : 46,875 кадров/сек (1024 SPF)
Метод сжатия : С потерями
Размер потока : 88,2 Мбайт (7%)
Язык : English
Default : Да
Alternate group : 1
Menus : 3

Меню #1
Идентификатор : 3
Идентификатор кодека : txet
Продолжительность : 48 м. 40 с.
Язык : English
Menu For : 1,2
Duration_LastFrame : -79120

Меню #2
00:00:00.000 : Chapter 1
00:05:00.000 : Chapter 2
00:10:00.000 : Chapter 3
00:15:00.000 : Chapter 4
00:20:00.000 : Chapter 5
00:25:00.000 : Chapter 6
00:30:00.000 : Chapter 7
00:35:00.000 : Chapter 8
00:40:00.000 : Chapter 9
00:45:00.000 : Chapter 10
Any questions - support@pro-jazz.com. Есть вопросы - support@pro-jazz.com
152
Нет комментариев. Ваш будет первым!