Поиск

2020 Brad Mehldau - Brad Mehldau Plays The Beatles [HDTV 1080i]

2020 Brad Mehldau - Brad Mehldau Plays The Beatles [HDTV 1080i]
Стиль:
Место проведения:
Philharmonie de Paris, France
Главы (разбивка по трекам):
нет
Качество:
HDTV
Контейнер:
MP4
Треклист:

01. I Am The Walrus  04:14
02. Your Mother Should Know  02:18
03. I Saw Her Standing There  03:54
04. For No One  02:28
05. Baby's In Black  07:19
06. She Said, She Said  02:42
07. Here, There And Everywhere  03:58
08. If I Needed Someone   02:25
09. Maxwell's Silver Hammer  06:42
10. Golden Slumbers  08:17
11. Life On Mars?  04:09

Состав:
  • Brad Mehldau - piano
Видео:
AVC (h.264) / 1920x1080 / interlaced / 16:9 / 3120 Кбит / 25.00 fps
Аудио#1:
AAC LC / VBR / 256kbps / 48kHz / 2ch stereo
Отчёт DVDInfo/MediaInfo/BDInfo
Общее
Полное имя : \\Brad Mehldau\2020 Brad Mehldau - Plays The Beatles [HDTV 1080i].mp4
Формат : MPEG-4
Профиль формата : Base Media
Идентификатор кодека : isom (isom/iso2/avc1/mp41)
Размер файла : 1,12 Гбайт
Продолжительность : 51 м. 15 с.
Режим общего битрейта : Переменный
Общий поток : 3 120 Кбит/сек
Программа кодирования : VideoReDo (Lavf58.29.100)

Видео
Идентификатор : 1
Формат : AVC
Формат/Информация : Advanced Video Codec
Профиль формата : High@L4
Настройки формата : CABAC / 4 Ref Frames
Параметр CABAC формата : Да
Параметр RefFrames формата : 4 кадра
Идентификатор кодека : avc1
Идентификатор кодека/Информация : Advanced Video Coding
Продолжительность : 51 м. 14 с.
Битрейт : 2 853 Кбит/сек
Ширина : 1 920 пикселей
Высота : 1 080 пикселей
Соотношение сторон : 16:9
Режим частоты кадров : Постоянный
Частота кадров : 50,000 кадров/сек
Частота кадров в оригинале : 25,000 кадров/сек
Стандарт вещания : Component
Цветовое пространство : YUV
Субдискретизация насыщенности : 4:2:0
Битовая глубина : 8 бит
Тип развёртки : Чересстрочная
Метод сохранения типа развёртки : Раздельные поля
Порядок развёртки : Верхнее поле первое
Бит/(Пиксели*Кадры) : 0.028
Размер потока : 1,02 Гбайт (91%)
Цветовой диапазон : Limited
Основные цвета : BT.709
Характеристики трансфера : BT.709
Коэффициенты матрицы : BT.709
Menus : 3
Codec configuration box : avcC

Аудио
Идентификатор : 2
Формат : AAC LC
Формат/Информация : Advanced Audio Codec Low Complexity
Идентификатор кодека : mp4a-40-2
Продолжительность : 51 м. 15 с.
Duration_LastFrame : -21 мс.
Вид битрейта : Переменный
Битрейт : 253 Кбит/сек
Максимальный битрейт : 256 Кбит/сек
Каналы : 2 канала
Channel layout : L R
Частота : 48,0 КГц
Частота кадров : 46,875 кадров/сек (1024 SPF)
Метод сжатия : С потерями
Размер потока : 92,9 Мбайт (8%)
Язык : French
Default : Да
Alternate group : 1
Menus : 3

Меню #1
Идентификатор : 3
Формат : txet
Идентификатор кодека : txet
Продолжительность : 51 м. 15 с.
Язык : English
Menu For : 1,2
Duration_LastFrame : -225000

Меню #2
00:00:00.000 : Chapter 1
00:05:00.000 : Chapter 2
00:10:00.000 : Chapter 3
00:15:00.000 : Chapter 4
00:20:00.000 : Chapter 5
00:25:00.000 : Chapter 6
00:30:00.000 : Chapter 7
00:35:00.000 : Chapter 8
00:40:00.000 : Chapter 9
00:45:00.000 : Chapter 10
00:50:00.000 : Chapter 11
Any questions - projazzclub@gmail.com
495
Нет комментариев. Ваш будет первым!