Поиск

2019 Yom & The Wonder Rabbis - at Jazz A Vienne Fest [HDTV 1080i]

2019 Yom & The Wonder Rabbis - at Jazz A Vienne Fest [HDTV 1080i]
Состав:
  • Yom (cl, compos)
  • Léo Jassef (k)
  • Guillaume Magne (g)
  • Sylvain Daniel (b)
  • Mathieu Penot (dms)
Дата проведения концерта (записи):
11 июля 2019
Место проведения:
Theatre Antique De Vienne, Vienne, France
Время звучания:
00:59:30
Главы (разбивка по трекам):
нет
Качество:
HDTV
Контейнер:
MP4
Видео:
AVC,1920*1080i (16:9), 5114kbps, 25fps
Аудио#1:
AAC LC, 256kbps, Constant, 48kHz, 2ch stereo
Отчёт DVDInfo/MediaInfo/BDInfo
Общее
Полное имя : \\2019 Yom & The Wonder Rabbis - at Jazz A Vienne Fest [HDTV 1080i].mp4
Формат : MPEG-4
Профиль формата : Base Media
Идентификатор кодека : isom (isom/iso2/avc1/mp41)
Размер файла : 2,24 Гбайт
Продолжительность : 59 м. 30 с.
Режим общего битрейта : Переменный
Общий поток : 5381 Кбит/сек
Программа кодирования : VideoReDo (Lavf57.71.100)

Видео
Идентификатор : 1
Формат : AVC
Формат/Информация : Advanced Video Codec
Профиль формата : High@L4
Настройки формата : CABAC / 4 Ref Frames
Параметр CABAC формата : Да
Параметр RefFrames формата : 4 кадра
Параметр GOP формата : M=4, N=28
Идентификатор кодека : avc1
Идентификатор кодека/Информация : Advanced Video Coding
Продолжительность : 59 м. 30 с.
Битрейт : 5114 Кбит/сек
Ширина : 1920 пикселей
Высота : 1080 пикселей
Соотношение сторон : 16:9
Режим частоты кадров : Постоянный
Частота кадров : 50,000 кадров/сек
Частота кадров в оригинале : 25,000 кадров/сек
Стандарт вещания : Component
Цветовое пространство : YUV
Субдискретизация насыщенности : 4:2:0
Битовая глубина : 8 бит
Тип развёртки : Чересстрочная
Метод сохранения типа развёртки : Раздельные поля
Порядок развёртки : Верхнее поле первое
Бит/(Пиксели*Кадры) : 0.049
Размер потока : 2,13 Гбайт (95%)
Цветовой диапазон : Limited
Основные цвета : BT.709
Характеристики трансфера : BT.709
Коэффициенты матрицы : BT.709
Codec configuration box : avcC

Аудио
Идентификатор : 2
Формат : AAC LC
Формат/Информация : Advanced Audio Codec Low Complexity
Идентификатор кодека : mp4a-40-2
Продолжительность : 59 м. 30 с.
Duration_LastFrame : -21 мс.
Вид битрейта : Переменный
Битрейт : 253 Кбит/сек
Максимальный битрейт : 256 Кбит/сек
Каналы : 2 канала
ChannelLayout : L R
Частота : 48,0 КГц
Частота кадров : 46,875 кадров/сек (1024 SPF)
Метод сжатия : С потерями
Размер потока : 108 Мбайт (5%)
Язык : Russian
Default : Да
AlternateGroup/String : 1
No seeders - write a personal message to M0p94ok. Any questions - support@pro-jazz.com.
Нет сидеров - пишите в личку M0p94ok. Есть вопросы - support@pro-jazz.com
430
Нет комментариев. Ваш будет первым!