Вы используете незарегистрированную версию компонента "Вкладки"!

Поиск

2019 Marcus Miller - Laid Black Tour - Estival Jazz Lugano [HDTV 720p]

2019 Marcus Miller - Laid Black Tour - Estival Jazz Lugano [HDTV 720p]
Время звучания:
01:32:49
Главы (разбивка по трекам):
нет
Качество:
HDTV
Состав:
  • Marcus Miller: bass, bass clarinet
  • Alex Han: alto saxophone
  • Russell Gunn: trumpet
  • James Francies: keyboards
  • Julian Pollack: keyboards
  • Alex Bailey: drums
Видео:
MPEG4 Video (H264) 1280x720 50fps 9 959 kb/s
Аудио#1:
Dolby AC3 48000Hz 6ch 448kbps
Отчёт DVDInfo/MediaInfo/BDInfo
General
ID : 1700 (0x6A4)
Complete name : F:\Marcus Miller - Laid Black Tour (Estival Jazz Lugano) 2019.ts
Format : MPEG-TS
File size : 7.10 GiB
Duration : 1 h 32 min
Overall bit rate mode : Variable
Overall bit rate : 11.0 Mb/s

Video
ID : 562 (0x232)
Menu ID : 14052 (0x36E4)
Format : AVC
Format/Info : Advanced Video Codec
Format profile : High@L4
Format settings : CABAC / 3 Ref Frames
Format settings, CABAC : Yes
Format settings, ReFrames : 3 frames
Format settings, GOP : M=2, N=24
Codec ID : 27
Duration : 1 h 32 min
Bit rate : 9 959 kb/s
Width : 1 280 pixels
Height : 720 pixels
Display aspect ratio : 16:9
Frame rate : 50.000 FPS
Standard : Component
Color space : YUV
Chroma subsampling : 4:2:0
Bit depth : 8 bits
Scan type : Progressive
Bits/(Pixel*Frame) : 0.216
Stream size : 6.46 GiB (91%)
Encryption : TPS-Crypt or Viaccess
Color range : Limited
Color primaries : BT.709
Transfer characteristics : BT.709
Matrix coefficients : BT.709

Audio
ID : 565 (0x235)
Menu ID : 14052 (0x36E4)
Format : AC-3
Format/Info : Audio Coding 3
Commercial name : Dolby Digital
Codec ID : 6
Duration : 1 h 32 min
Bit rate mode : Constant
Bit rate : 448 kb/s
Channel(s) : 6 channels
Channel layout : L R C LFE Ls Rs
Sampling rate : 48.0 kHz
Frame rate : 31.250 FPS (1536 SPF)
Bit depth : 16 bits
Compression mode : Lossy
Delay relative to video : 68 ms
Stream size : 297 MiB (4%)
Language : Italian
Language, more info : Clean effects
Service kind : Complete Main
Encryption : TPS-Crypt or Viaccess
Any questions - support@pro-jazz.com. Есть вопросы - support@pro-jazz.com
516
Нет комментариев. Ваш будет первым!