Вы используете незарегистрированную версию компонента "Вкладки"!

Поиск

2019 Makaya McCraven - at Montreal Jazz Fest [HDTV 1080i]

2019 Makaya McCraven - at Montreal Jazz Fest [HDTV 1080i]
Дата проведения концерта (записи):
30 июня 2019
Место проведения:
Festival International de Jazz de Montreal
Время звучания:
01:22:46
Главы (разбивка по трекам):
нет
Качество:
HDTV
Контейнер:
MP4
Состав:
  • Makaya McCraven - drums
  • Greg Spero - keys
  • Matt Gold - guitar
  • Irvin Pierce - tenor sax
  • Jeremiah Hunt - upright & electric bass 
Видео:
AVC (h.264) / 1920*1080i / 16:9 / 3850kbps / 25fps
Аудио#1:
AAC LC / 256kbps / Constant / 48kHz / 2ch stereo
Отчёт DVDInfo/MediaInfo/BDInfo
Общее
Полное имя : \\2019 Makaya McCraven - at Montreal Jazz Fest [HDTV 1080i].mp4
Формат : MPEG-4
Профиль формата : Base Media
Идентификатор кодека : isom (isom/iso2/avc1/mp41)
Размер файла : 2,38 Гбайт
Продолжительность : 1 ч. 22 м.
Режим общего битрейта : Переменный
Общий поток : 4 103 Кбит/сек
Название фильма : 2019 Makaya McCraven - at Montreal Jazz Fest [HDTV 1080i]
Жанр : Jazz
PodcastURL : https://pro-jazz.com/videos/2019-makaya-mccraven-at-montreal-jazz-fest-hdtv-1080i-556.html

Видео
Идентификатор : 1
Формат : AVC
Формат/Информация : Advanced Video Codec
Профиль формата : High@L4
Настройки формата : CABAC / 4 Ref Frames
Параметр CABAC формата : Да
Параметр RefFrames формата : 4 кадра
Параметр GOP формата : M=4, N=28
Идентификатор кодека : avc1
Идентификатор кодека/Информация : Advanced Video Coding
Продолжительность : 1 ч. 22 м.
Битрейт : 1 925 Кбит/сек
Ширина : 1 920 пикселей
Высота : 1 080 пикселей
Соотношение сторон : 16:9
Частота кадров : 25,000 кадров/сек
Стандарт вещания : Component
Цветовое пространство : YUV
Субдискретизация насыщенности : 4:2:0
Битовая глубина : 8 бит
Тип развёртки : Чересстрочная
Метод сохранения типа развёртки : Раздельные поля
Порядок развёртки : Верхнее поле первое
Бит/(Пиксели*Кадры) : 0.037
Размер потока : 2,23 Гбайт (94%)
Цветовой диапазон : Limited
Основные цвета : BT.709
Характеристики трансфера : BT.709
Коэффициенты матрицы : BT.709
Menus : 3
Codec configuration box : avcC

Аудио
Идентификатор : 2
Формат : AAC LC
Формат/Информация : Advanced Audio Codec Low Complexity
Идентификатор кодека : mp4a-40-2
Продолжительность : 1 ч. 22 м.
Duration_LastFrame : -21 мс.
Вид битрейта : Переменный
Битрейт : 253 Кбит/сек
Максимальный битрейт : 256 Кбит/сек
Каналы : 2 канала
Channel layout : L R
Частота : 48,0 КГц
Частота кадров : 46,875 кадров/сек (1024 SPF)
Метод сжатия : С потерями
Размер потока : 150 Мбайт (6%)
Язык : Russian
Default : Да
Alternate group : 1
Menus : 3

Меню #1
Идентификатор : 3
Идентификатор кодека : txet
Продолжительность : 1 ч. 22 м.
Язык : English
Menu For : 1,2

Меню #2
00:00:00.000 : Chapter 1
00:05:00.000 : Chapter 2
00:10:00.000 : Chapter 3
00:15:00.000 : Chapter 4
00:20:00.000 : Chapter 5
00:25:00.000 : Chapter 6
00:30:00.000 : Chapter 7
00:35:00.000 : Chapter 8
00:40:00.000 : Chapter 9
00:45:00.000 : Chapter 10
00:50:00.000 : Chapter 11
00:55:00.000 : Chapter 12
01:00:00.000 : Chapter 13
01:03:06.680 : Chapter 14
01:08:06.680 : Chapter 15
01:13:06.680 : Chapter 16
01:18:06.680 : Chapter 17
Any questions - support@pro-jazz.com. Есть вопросы - support@pro-jazz.com
438
Нет комментариев. Ваш будет первым!