Поиск

2019 Kenny Barron Quintet - At Leopolis Jazz Fest [HDTV 1080i]

2019 Kenny Barron Quintet - At Leopolis Jazz Fest [HDTV 1080i]
Дата проведения концерта (записи):
27 июня 2019
Место проведения:
Leopolis, Ukraine
Время звучания:
01:34:03
Главы (разбивка по трекам):
нет
Качество:
HDTV
Контейнер:
TS
Состав:
  • Kenny Barron - piano
  • Marcus Stickland - sax
  • Riley Mulherkar - trumpet
  • kiyoshi Kitagawa - bass
  • Johnathan Blake - drums
Видео:
AVC (h264) / 1920*1080i / 16:9 / 4 916kbps / 25fps
Аудио#1:
MPEG Audio Layer 2 / 256kbps / Constant / 48kHz / 2ch stereo
Источник:
собственная запись
Отчёт DVDInfo/MediaInfo/BDInfo
Общее
Идентификатор : 1 (0x1)
Полное имя : \\Kenny Barron\2019 Kenny Barron Quintet - at Leopolis Jazz Fest [HDTV 1080i].ts
Формат : MPEG-TS
Размер файла : 3,58 Гбайт
Продолжительность : 1 ч. 34 м.
Режим общего битрейта : Переменный
Общий поток : 5 443 Кбит/сек

Видео
Идентификатор : 513 (0x201)
Идентификатор меню : 1 (0x1)
Формат : AVC
Формат/Информация : Advanced Video Codec
Профиль формата : High@L4
Настройки формата : CABAC / 4 Ref Frames
Параметр CABAC формата : Да
Параметр RefFrames формата : 4 кадра
Идентификатор кодека : 27
Продолжительность : 1 ч. 34 м.
Битрейт : 4 916 Кбит/сек
Ширина : 1 920 пикселей
Высота : 1 080 пикселей
Соотношение сторон : 16:9
Частота кадров : 25,000 кадров/сек
Стандарт вещания : Component
Цветовое пространство : YUV
Субдискретизация насыщенности : 4:2:0
Битовая глубина : 8 бит
Тип развёртки : Чересстрочная
Метод сохранения типа развёртки : Раздельные поля
Порядок развёртки : Верхнее поле первое
Бит/(Пиксели*Кадры) : 0.095
Размер потока : 3,23 Гбайт (90%)
Цветовой диапазон : Limited
Основные цвета : BT.709
Характеристики трансфера : BT.709
Коэффициенты матрицы : BT.709

Аудио
Идентификатор : 514 (0x202)
Идентификатор меню : 1 (0x1)
Формат : MPEG Audio
Версия формата : Version 1
Профиль формата : Layer 2
Идентификатор кодека : 3
Продолжительность : 1 ч. 34 м.
Вид битрейта : Постоянный
Битрейт : 256 Кбит/сек
Каналы : 2 канала
Частота : 48,0 КГц
Частота кадров : 41,667 кадра/сек (1152 SPF)
Метод сжатия : С потерями
Размер потока : 172 Мбайт (5%)
Язык : French
По всем вопросам пишите личное сообщение пользователю M0p94ok.
712
Нет комментариев. Ваш будет первым!