Поиск

2019 Eric Serra & Rxra Group - Live Au Nubia [HDTV 1080i]

2019 Eric Serra & Rxra Group - Live Au Nubia [HDTV 1080i]
Дата проведения концерта (записи):
15 июня 2019
Место проведения:
Le Nubia, Paris, France
Время звучания:
00:51:43
Главы (разбивка по трекам):
нет
Качество:
HDTV
Контейнер:
MP4
Состав:
  • Eric Serra, Bass
  • Pierre Marcault,Percussions
  • Thierry Eliez, Keyboard &Piano
  • Jim Grandcamp,Guitar
  • Damien Schmitt,Drums
  • Renan Richard-Kobel,Saxophone
Треклист:

01. "Homage To The Rabbits" A/C Eric Serra
02. "The Goldeneye Overture" A/C Eric Serra
03. "One Day In The Life Of Leon" A/C Eric Serra
04. "Bogo M Atassalal" A/C Eric Serra
05. "Let Them Try" A/C Eric Serra
06. "Lila" A/C Ivan Paduart

Видео:
AVC,1920*1080i (16:9), 3851kbps, 25fps
Аудио#1:
AAC LC, 256kbps, 48kHz, 2ch
Дополнительная информация:
 
Скриншоты видео

Отчёт DVDInfo/MediaInfo/BDInfo
Общее
Полное имя : \\2019 Eric Serra & Rxra Group - Live Au Nubia [HDTV 1080i].mp4
Формат : MPEG-4
Профиль формата : Base Media
Идентификатор кодека : isom (isom/iso2/avc1/mp41)
Размер файла : 1,49 Гбайт
Продолжительность : 51 м. 43 с.
Режим общего битрейта : Переменный
Общий поток : 4118 Кбит/сек
Программа кодирования : VideoReDo (Lavf57.71.100)

Видео
Идентификатор : 1
Формат : AVC
Формат/Информация : Advanced Video Codec
Профиль формата : High@L4
Настройки формата : CABAC / 4 Ref Frames
Параметр CABAC формата : Да
Параметр RefFrames формата : 4 кадра
Параметр GOP формата : M=4, N=28
Идентификатор кодека : avc1
Идентификатор кодека/Информация : Advanced Video Coding
Продолжительность : 51 м. 43 с.
Битрейт : 3851 Кбит/сек
Ширина : 1920 пикселей
Высота : 1080 пикселей
Соотношение сторон : 16:9
Режим частоты кадров : Постоянный
Частота кадров : 50,000 кадров/сек
Частота кадров в оригинале : 25,000 кадров/сек
Стандарт вещания : Component
Цветовое пространство : YUV
Субдискретизация насыщенности : 4:2:0
Битовая глубина : 8 бит
Тип развёртки : Чересстрочная
Метод сохранения типа развёртки : Раздельные поля
Порядок развёртки : Верхнее поле первое
Бит/(Пиксели*Кадры) : 0.037
Размер потока : 1,39 Гбайт (94%)
Цветовой диапазон : Limited
Основные цвета : BT.709
Характеристики трансфера : BT.709
Коэффициенты матрицы : BT.709
Codec configuration box : avcC

Аудио
Идентификатор : 2
Формат : AAC LC
Формат/Информация : Advanced Audio Codec Low Complexity
Идентификатор кодека : mp4a-40-2
Продолжительность : 51 м. 43 с.
Duration_LastFrame : -21 мс.
Вид битрейта : Переменный
Битрейт : 253 Кбит/сек
Максимальный битрейт : 256 Кбит/сек
Каналы : 2 канала
ChannelLayout : L R
Частота : 48,0 КГц
Частота кадров : 46,875 кадров/сек (1024 SPF)
Метод сжатия : С потерями
Размер потока : 93,8 Мбайт (6%)
Язык : Russian
Default : Да
AlternateGroup/String : 1
По всем вопросам пишите личное сообщение пользователю M0p94ok.
737
Нет комментариев. Ваш будет первым!