Поиск

2019 Christian Sands Trio - Tribute To Erroll Garner at Jazz a la Villette [HDTV 1080i]

2019 Christian Sands Trio - Tribute To Erroll Garner at Jazz a la Villette [HDTV 1080i]
Дата проведения концерта (записи):
7 сентября 2019
Место проведения:
Jazz à la Villette, Philharmonie de Paris, France
Время звучания:
01:01:53
Главы (разбивка по трекам):
нет
Качество:
HDTV
Контейнер:
TS
Состав:
  • Christian Sands - piano
  • Luques Curtis - bass
  • Terreon Gully - drums
Треклист:

1. Chase Me
2. High Wire
3. Dream Street
4. Wild Music
5. My Funny Valentine
6. Yesterday

Видео:
AVC,1920*1080i (16:9), 3544kbps, 25fps
Аудио#1:
MPEG3 layer2, 256kbps, 48kHz, 2ch
Отчёт DVDInfo/MediaInfo/BDInfo
Общее
Идентификатор : 1 (0x1)
Полное имя : \\Christian Sands\2019 Christian Sands Trio - Tribute To Erroll Garner [HDTV 1080i].ts
Формат : MPEG-TS
Размер файла : 1,73 Гбайт
Продолжительность : 1 ч. 1 м.
Режим общего битрейта : Переменный
Общий поток : 4 001 Кбит/сек

Видео
Идентификатор : 513 (0x201)
Идентификатор меню : 1 (0x1)
Формат : AVC
Формат/Информация : Advanced Video Codec
Профиль формата : High@L4
Настройки формата : CABAC / 4 Ref Frames
Параметр CABAC формата : Да
Параметр RefFrames формата : 4 кадра
Идентификатор кодека : 27
Продолжительность : 1 ч. 1 м.
Битрейт : 3 544 Кбит/сек
Ширина : 1 920 пикселей
Высота : 1 080 пикселей
Соотношение сторон : 16:9
Частота кадров : 25,000 кадров/сек
Стандарт вещания : Component
Цветовое пространство : YUV
Субдискретизация насыщенности : 4:2:0
Битовая глубина : 8 бит
Тип развёртки : Чересстрочная
Метод сохранения типа развёртки : Раздельные поля
Порядок развёртки : Верхнее поле первое
Бит/(Пиксели*Кадры) : 0.068
Размер потока : 1,53 Гбайт (89%)
Цветовой диапазон : Limited
Основные цвета : BT.709
Характеристики трансфера : BT.709
Коэффициенты матрицы : BT.709

Аудио
Идентификатор : 514 (0x202)
Идентификатор меню : 1 (0x1)
Формат : MPEG Audio
Версия формата : Version 1
Профиль формата : Layer 2
Идентификатор кодека : 3
Продолжительность : 1 ч. 1 м.
Вид битрейта : Постоянный
Битрейт : 256 Кбит/сек
Каналы : 2 канала
Частота : 48,0 КГц
Частота кадров : 41,667 кадра/сек (1152 SPF)
Метод сжатия : С потерями
Размер потока : 113 Мбайт (6%)
Язык : Russian
По всем вопросам пишите личное сообщение пользователю M0p94ok.
552
20:38
+1
СПАСИБО!!! До чего чудесный концерт.Да, Крстиан Макбрайт обладает чутьем, он в своем трио дал уверенный старт Кристиану, хотя тот до этого брал уроки у Билли Тейлора, был номинирован на латинскую грэмми. Музыка бьет мощным течением, унося за собой слушателя, легко, изобретательно, воздушно, эмоционально.Dream Street-невозможно усидеть, на пару с друмером до предела накаляют атмосферу, зрители ликуют.Очень интересно наблюдать за карьерой этого молодого, но невероятно талантливого пианиста.