Поиск

2019 Al DiMeola - at B Jazz Burghausen Jazzwoche [HDTV 1080i]

2019 Al DiMeola  - at B Jazz Burghausen Jazzwoche [HDTV 1080i]
Главы (разбивка по трекам):
нет
Качество:
HDTV
Контейнер:
MP4
Состав:
Треклист:

01. Azzurra
02. Milonga Noctiva
03. Mawazine
04. Brave New World
05. Frozen in Time
06. Turquoise
07. Mediterranean Sundance

Видео:
AVC (h.264) / 1920*1080 / interlaced / 16:9 / 6 118 kbps / 25.00 fps
Аудио#1:
AAC LC / 256 kbps / variable / 48 kHz / 2.0 ch stereo
Описание:

С 1970 года Бургхаузен стал символом джаза. На одну неделю в марте маленький городок на реке Зальцах превращается в немецкий Новый Орлеан. В Бургхаузене выступали Элла Фицджеральд, Крис Барбер, Рой Харгроув, Чик Кориа и Дэйв Брубек. Ежегодная неделя джаза — один из крупнейших фестивалей такого рода в мире. EuroArts представляет серию концертных записей, а также документальный фильм о легендарном джазовом фестивале.

Кар'єра Аль Ді Меоли поєднує в собі широкий спектр емоцій та натхненних світових впливів в унікальний стиль. Від сольних хітів "Land of the Midnight Sun", "Elegant Gypsy" та "Casino", які на той час були одними з найбільш продаваних платівок серед інструментальних виконавців, до його поточної дискографії, Ел Ді Меола продовжує досягати приголомшливих успіхів у музичному новаторстві. 

Інтрига Ела зі складними ритмами в поєднанні з провокаційними ліричними мелодіями, що завжди включають витончену гармонію, яка лежить в основі цих серйозних, але проникливих творів, все ще впливає на співаків і гітаристів по всьому світу. Серед імен, з якими працював Ал, такі легенди, як Чік Коріа, Лучано Паваротті, Пако Де Лючія, Пол Саймон, Філ Коллінз, Сантана, Джон Маклафлін, Ларрв Коріелл, Стів Вінвуд, Вейн Шортер, Енді Кок, Гербі Хенкок, Гонсало Рубалькаба, Жако Пасторіус, Ле Поль, Жан Люк Понті, Стів Вай, Френк Заппа, Мілтон Насьєменто, Егберто Гісмонті, Джиммі Пейдж, Тоні Вільямс, Стенлі Кларк, Стіві Вандер, Irakere та багато інших.

Дополнительная информация:

This video is available on our DC++ hub: dc.pro-jazz.com
Это видео доступно на нашем DC++ хабе: dc.pro-jazz.com

Отчёт DVDInfo/MediaInfo/BDInfo
Общее
Полное имя : \\Nasf8f4eb\2\A\Al Di Meola\2019 Al DiMeola - at B Jazz Burghausen Jazzwoche [HDTV 1080i].mp4
Формат : MPEG-4
Профиль формата : Base Media
Идентификатор кодека : isom (isom/iso2/avc1/mp41)
Размер файла : 1,32 Гбайт
Продолжительность : 29 м. 30 с.
Режим общего битрейта : Переменный
Общий поток : 6 385 Кбит/сек
Частота кадров : 50,000 кадров/сек
Программа кодирования : VideoReDo (Lavf58.29.100)

Видео
Идентификатор : 1
Формат : AVC
Формат/Информация : Advanced Video Codec
Профиль формата : High@L4
Настройки формата : CABAC / 4 Ref Frames
Параметр CABAC формата : Да
Параметр RefFrames формата : 4 кадра
Параметр GOP формата : M=4, N=28
Идентификатор кодека : avc1
Идентификатор кодека/Информация : Advanced Video Coding
Продолжительность : 29 м. 30 с.
Битрейт : 6 118 Кбит/сек
Ширина : 1 920 пикселей
Высота : 1 080 пикселей
Соотношение сторон : 16:9
Режим частоты кадров : Постоянный
Частота кадров : 50,000 кадров/сек
Частота кадров в оригинале : 25,000 кадров/сек
Стандарт вещания : Component
Цветовое пространство : YUV
Субдискретизация насыщенности : 4:2:0
Битовая глубина : 8 бит
Тип развёртки : Чересстрочная
Метод сохранения типа развёртки : Раздельные поля
Порядок развёртки : Верхнее поле первое
Бит/(Пиксели*Кадры) : 0.059
Размер потока : 1,26 Гбайт (96%)
Цветовой диапазон : Limited
Основные цвета : BT.709
Характеристики трансфера : BT.709
Коэффициенты матрицы : BT.709
Menus : 3
Codec configuration box : avcC

Аудио
Идентификатор : 2
Формат : AAC LC
Формат/Информация : Advanced Audio Codec Low Complexity
Идентификатор кодека : mp4a-40-2
Продолжительность : 29 м. 30 с.
Duration_LastFrame : -21 мс.
Вид битрейта : Переменный
Битрейт : 253 Кбит/сек
Максимальный битрейт : 256 Кбит/сек
Каналы : 2 канала
Channel layout : L R
Частота : 48,0 КГц
Частота кадров : 46,875 кадров/сек (1024 SPF)
Метод сжатия : С потерями
Размер потока : 53,5 Мбайт (4%)
Язык : French
Default : Да
Alternate group : 1
Menus : 3

Меню #1
Идентификатор : 3
Формат : txet
Идентификатор кодека : txet
Продолжительность : 29 м. 30 с.
Язык : English
Вид битрейта : CBR
Menu For : 1,2
Duration_LastFrame : -29960
Вид битрейта : Постоянный

Меню #2
00:00:00.000 : Chapter 1
00:05:00.000 : Chapter 2
00:10:00.000 : Chapter 3
00:15:00.000 : Chapter 4
00:20:00.000 : Chapter 5
00:25:00.000 : Chapter 6
Any questions - support@pro-jazz.com
To become a power user - read FAQ.
152
Нет комментариев. Ваш будет первым!