Поиск

2018 Manu Katche, Richard Bona, Mike Stern, Niels Lan Doky - Jazz In Marciac [HDTV 1080i]

2018 Manu Katche, Richard Bona, Mike Stern, Niels Lan Doky - Jazz In Marciac [HDTV 1080i]
Дата проведения концерта (записи):
6 августа 2018
Место проведения:
Jazz in Marciac Festival
Время звучания:
00:59:44
Главы (разбивка по трекам):
нет
Качество:
HDTV
Состав:
  • Mike Stern (guitar)
  • Niels Lan Doky (piano)
  • Richard Bona (bass)
  • Manu Katché (drums) 
Видео:
AVC,1920*1080i (16:9), 5937kbps, 25fps
Аудио#1:
AAC LC, 256kbps, 48kHz, 2ch
Отчёт DVDInfo/MediaInfo/BDInfo
Общее
Полное имя //2018 Manu Katche, Richard Bona, Mike Stern, Niels Lan Doky - Jazz In Marciac [HDTV 1080i].mp4
Формат : MPEG-4
Профиль формата : Base Media
Идентификатор кодека : isom (isom/iso2/avc1/mp41)
Размер файла : 2,59 Гбайт
Продолжительность : 59 м. 44 с.
Режим общего битрейта : Переменный
Общий поток : 6204 Кбит/сек
Программа кодирования : VideoReDo (Lavf57.71.100)

Видео
Идентификатор : 1
Формат : AVC
Формат/Информация : Advanced Video Codec
Профиль формата : High@L4
Настройки формата : CABAC / 4 Ref Frames
Параметр CABAC формата : Да
Параметр RefFrames формата : 4 кадра
Идентификатор кодека : avc1
Идентификатор кодека/Информация : Advanced Video Coding
Продолжительность : 59 м. 44 с.
Битрейт : 5937 Кбит/сек
Ширина : 1920 пикселей
Высота : 1080 пикселей
Соотношение сторон : 16:9
Режим частоты кадров : Постоянный
Частота кадров : 50,000 кадров/сек
Частота кадров в оригинале : 25,000 кадров/сек
Стандарт вещания : Component
Цветовое пространство : YUV
Субдискретизация насыщенности : 4:2:0
Битовая глубина : 8 бит
Тип развёртки : Чересстрочная
Метод сохранения типа развёртки : Раздельные поля
Порядок развёртки : Верхнее поле первое
Бит/(Пиксели*Кадры) : 0.057
Размер потока : 2,48 Гбайт (96%)
Цветовой диапазон : Limited
Основные цвета : BT.709
Характеристики трансфера : BT.709
Коэффициенты матрицы : BT.709
Codec configuration box : avcC

Аудио
Идентификатор : 2
Формат : AAC LC
Формат/Информация : Advanced Audio Codec Low Complexity
Идентификатор кодека : mp4a-40-2
Продолжительность : 59 м. 44 с.
Duration_LastFrame : -21 мс.
Вид битрейта : Переменный
Битрейт : 253 Кбит/сек
Максимальный битрейт : 256 Кбит/сек
Каналы : 2 канала
ChannelLayout : L R
Частота : 48,0 КГц
Частота кадров : 46,875 кадров/сек (1024 SPF)
Метод сжатия : С потерями
Размер потока : 108 Мбайт (4%)
Язык : Russian
Default : Да
AlternateGroup/String : 1
Скриншоты видео
2018 Manu Katche, Richard Bona, Mike Stern, Niels Lan Doky - Jazz In Marciac [HDTV 1080i] 02018 Manu Katche, Richard Bona, Mike Stern, Niels Lan Doky - Jazz In Marciac [HDTV 1080i] 12018 Manu Katche, Richard Bona, Mike Stern, Niels Lan Doky - Jazz In Marciac [HDTV 1080i] 22018 Manu Katche, Richard Bona, Mike Stern, Niels Lan Doky - Jazz In Marciac [HDTV 1080i] 32018 Manu Katche, Richard Bona, Mike Stern, Niels Lan Doky - Jazz In Marciac [HDTV 1080i] 42018 Manu Katche, Richard Bona, Mike Stern, Niels Lan Doky - Jazz In Marciac [HDTV 1080i] 5
По всем вопросам пишите личное сообщение пользователю M0p94ok.
601
Нет комментариев. Ваш будет первым!