Поиск

2018 Magic Malik Jazz Association Quintet - At Jazz sur Seine [WEBDL 720p]

2018 Magic Malik Jazz Association Quintet - At Jazz sur Seine [WEBDL 720p]
Дата проведения концерта (записи):
16 октября 2018
Место проведения:
Duc des Lombards, France
Время звучания:
00:43:15
Главы (разбивка по трекам):
нет
Качество:
WEB-DL
Контейнер:
TS
Видео:
AVC (h264) / 1280*720p / (16:9) / 2331kbps / 25fps
Аудио#1:
AAC / 256kbps / 48kHz / 2ch
Отчёт DVDInfo/MediaInfo/BDInfo
Общее
Полное имя : \\Magic Malik\2018 Magic Malik Jazz Association Quintet - At Jazz sur Seine [HDTVRip 720p]\2018 Magic Malik Jazz Association Quintet - At Jazz sur Seine [HDTVRip 720p].mp4
Формат : MPEG-4
Профиль формата : Base Media / Version 2
Идентификатор кодека : mp42 (isom/mp42)
Размер файла : 761 Мбайт
Продолжительность : 43 м. 15 с.
Режим общего битрейта : Переменный
Общий поток : 2460 Кбит/сек
Дата кодирования : UTC 2018-11-12 11:43:16
Дата пометки : UTC 2018-11-12 11:43:16

Видео
Идентификатор : 1
Формат : AVC
Формат/Информация : Advanced Video Codec
Профиль формата : Main@L3.1
Настройки формата : CABAC / 3 Ref Frames
Параметр CABAC формата : Да
Параметр RefFrames формата : 3 кадра
Идентификатор кодека : avc1
Идентификатор кодека/Информация : Advanced Video Coding
Продолжительность : 43 м. 15 с.
Битрейт : 2331 Кбит/сек
Ширина : 1280 пикселей
Высота : 720 пикселей
Соотношение сторон : 16:9
Режим частоты кадров : Постоянный
Частота кадров : 25,000 кадров/сек
Стандарт вещания : PAL
Цветовое пространство : YUV
Субдискретизация насыщенности : 4:2:0
Битовая глубина : 8 бит
Тип развёртки : Прогрессивная
Бит/(Пиксели*Кадры) : 0.101
Размер потока : 721 Мбайт (95%)
Дата кодирования : UTC 2018-11-12 11:43:16
Дата пометки : UTC 2018-11-12 11:43:16
Цветовой диапазон : Limited
Codec configuration box : avcC

Аудио
Идентификатор : 2
Формат : AAC LC
Формат/Информация : Advanced Audio Codec Low Complexity
Идентификатор кодека : mp4a-40-2
Продолжительность : 43 м. 15 с.
Вид битрейта : Переменный
Битрейт : 125 Кбит/сек
Максимальный битрейт : 263 Кбит/сек
Каналы : 2 канала
Channel layout : L R
Частота : 48,0 КГц
Частота кадров : 46,875 кадров/сек (1024 SPF)
Метод сжатия : С потерями
Размер потока : 38,8 Мбайт (5%)
Дата кодирования : UTC 2018-11-12 11:43:16
Дата пометки : UTC 2018-11-12 11:43:16
Download available for power users only.
445
Нет комментариев. Ваш будет первым!