Поиск

2018 Hugh Coltman - Live at Jazz In Marciac [HDTV 1080i]

2018 Hugh Coltman - Live at Jazz In Marciac [HDTV 1080i]
Стиль:
Дата проведения концерта (записи):
31 июля 2018
Место проведения:
Jazz in Marciac
Время звучания:
01:02:27
Главы (разбивка по трекам):
нет
Качество:
HDTV
Состав:
  • Hugh Coltman (voix)
  • Jérôme Etcheberry (trompette)
  • Jerry Edwards (trombone)
  • Frédéric Couderc (clarinette, saxophone baryton)
  • Eric Sauviat (guitare)
  • Gael Rakotondrabe (piano)
  • Didier Havet (soubassophone)
  •  Raphael Chassin (batterie)
Треклист:
  1. Civy Street
  2. Sugar Coated Pill
  3. The Sinner
  4. Ladybird
  5. It's Your Voodoo Working
  6. New Park Street
  7. Caravan
  8. Hand Me Downs
  9. All Slips Away
  10. Sleep Late
  11. Resignation Letter
  12. Daydream
  13. The Colonel Is Cooking
  14. Old Black Magic
  15. Little Big Man
Видео:
AVC,1920*1080i (16:9), 5510kbps, 25fps
Аудио#1:
AAC LC, 256kbps, 48kHz, 2ch
Отчёт DVDInfo/MediaInfo/BDInfo
Общее
Полное имя : \\2018 Hugh Coltman - Live at Jazz In Marciac [HDTV 1080i].mp4
Формат : MPEG-4
Профиль формата : Base Media
Идентификатор кодека : isom (isom/iso2/avc1/mp41)
Размер файла : 2,28 Гбайт
Продолжительность : 1 ч. 4 м.
Режим общего битрейта : Переменный
Общий поток : 5071 Кбит/сек
Программа кодирования : VideoReDo (Lavf57.71.100)

Видео
Идентификатор : 1
Формат : AVC
Формат/Информация : Advanced Video Codec
Профиль формата : High@L4
Настройки формата : CABAC / 4 Ref Frames
Параметр CABAC формата : Да
Параметр RefFrames формата : 4 кадра
Идентификатор кодека : avc1
Идентификатор кодека/Информация : Advanced Video Coding
Продолжительность : 1 ч. 4 м.
Битрейт : 4804 Кбит/сек
Ширина : 1920 пикселей
Высота : 1080 пикселей
Соотношение сторон : 16:9
Режим частоты кадров : Постоянный
Частота кадров : 50,000 кадров/сек
Частота кадров в оригинале : 25,000 кадров/сек
Стандарт вещания : Component
Цветовое пространство : YUV
Субдискретизация насыщенности : 4:2:0
Битовая глубина : 8 бит
Тип развёртки : Чересстрочная
Метод сохранения типа развёртки : Раздельные поля
Порядок развёртки : Верхнее поле первое
Бит/(Пиксели*Кадры) : 0.046
Размер потока : 2,16 Гбайт (95%)
Цветовой диапазон : Limited
Основные цвета : BT.709
Характеристики трансфера : BT.709
Коэффициенты матрицы : BT.709
Codec configuration box : avcC

Аудио
Идентификатор : 2
Формат : AAC LC
Формат/Информация : Advanced Audio Codec Low Complexity
Идентификатор кодека : mp4a-40-2
Продолжительность : 1 ч. 4 м.
Duration_LastFrame : -21 мс.
Вид битрейта : Переменный
Битрейт : 253 Кбит/сек
Максимальный битрейт : 256 Кбит/сек
Каналы : 2 канала
ChannelLayout : L R
Частота : 48,0 КГц
Частота кадров : 46,875 кадров/сек (1024 SPF)
Метод сжатия : С потерями
Размер потока : 117 Мбайт (5%)
Язык : Russian
Default : Да
AlternateGroup/String : 1
Скриншоты видео
2018 Hugh Coltman - Live at Jazz In Marciac [HDTV 1080i] 02018 Hugh Coltman - Live at Jazz In Marciac [HDTV 1080i] 12018 Hugh Coltman - Live at Jazz In Marciac [HDTV 1080i] 22018 Hugh Coltman - Live at Jazz In Marciac [HDTV 1080i] 32018 Hugh Coltman - Live at Jazz In Marciac [HDTV 1080i] 42018 Hugh Coltman - Live at Jazz In Marciac [HDTV 1080i] 5
Download available for power users only.
519
Нет комментариев. Ваш будет первым!