Вы используете незарегистрированную версию компонента "Вкладки"!

Поиск

2018 Das Kapital & Royal Symphonic Wind Orchestra - Eisler Explotion at Festival Jazzdor de Strasbourg [HDTV 1080i]

2018 Das Kapital & Royal Symphonic Wind Orchestra - Eisler Explotion at Festival Jazzdor de Strasbourg [HDTV 1080i]
Дата проведения концерта (записи):
11 ноября 2018
Место проведения:
Festival Jazzdor de Strasbourg
Время звучания:
00:51:31
Главы (разбивка по трекам):
нет
Качество:
HDTV
Контейнер:
MP4
Видео:
AVC (h.264) / 1920*1080i / 16:9 / 4030kbps / 25fps
Аудио#1:
AAC LC / 256kbps Constant/ 48kHz / 2ch stereo
Отчёт DVDInfo/MediaInfo/BDInfo
Общее
Полное имя : \\2018 Das Kapital & Royal Symphonic Wind Orchestra - Eisler Explotion [HDTV 1080i].mp4
Формат : MPEG-4
Профиль формата : Base Media
Идентификатор кодека : isom (isom/iso2/avc1/mp41)
Размер файла : 1,55 Гбайт
Продолжительность : 51 м. 31 с.
Режим общего битрейта : Переменный
Общий поток : 4297 Кбит/сек
Программа кодирования : VideoReDo (Lavf57.71.100)

Видео
Идентификатор : 1
Формат : AVC
Формат/Информация : Advanced Video Codec
Профиль формата : High@L4
Настройки формата : CABAC / 4 Ref Frames
Параметр CABAC формата : Да
Параметр RefFrames формата : 4 кадра
Идентификатор кодека : avc1
Идентификатор кодека/Информация : Advanced Video Coding
Продолжительность : 51 м. 31 с.
Битрейт : 4030 Кбит/сек
Ширина : 1920 пикселей
Высота : 1080 пикселей
Соотношение сторон : 16:9
Режим частоты кадров : Постоянный
Частота кадров : 50,000 кадров/сек
Частота кадров в оригинале : 25,000 кадров/сек
Стандарт вещания : Component
Цветовое пространство : YUV
Субдискретизация насыщенности : 4:2:0
Битовая глубина : 8 бит
Тип развёртки : Чересстрочная
Метод сохранения типа развёртки : Раздельные поля
Порядок развёртки : Нижнее поле первое
Бит/(Пиксели*Кадры) : 0.039
Размер потока : 1,45 Гбайт (94%)
Цветовой диапазон : Limited
Основные цвета : BT.709
Характеристики трансфера : BT.709
Коэффициенты матрицы : BT.709
Codec configuration box : avcC

Аудио
Идентификатор : 2
Формат : AAC LC
Формат/Информация : Advanced Audio Codec Low Complexity
Идентификатор кодека : mp4a-40-2
Продолжительность : 51 м. 31 с.
Duration_LastFrame : -21 мс.
Вид битрейта : Переменный
Битрейт : 253 Кбит/сек
Максимальный битрейт : 256 Кбит/сек
Каналы : 2 канала
ChannelLayout : L R
Частота : 48,0 КГц
Частота кадров : 46,875 кадров/сек (1024 SPF)
Метод сжатия : С потерями
Размер потока : 93,4 Мбайт (6%)
Язык : Russian
Default : Да
AlternateGroup/String : 1
Any questions - support@pro-jazz.com. Есть вопросы - support@pro-jazz.com
359
Нет комментариев. Ваш будет первым!