Вы используете незарегистрированную версию компонента "Вкладки"!

Поиск

2018 Dam'nco - at Jazz Sous Les Pommiers [HDTV 1080p]

2018 Dam'nco - at Jazz Sous Les Pommiers [HDTV 1080p]
Дата проведения концерта (записи):
10 мая 2018
Место проведения:
Coutances, Manche, Basse-Normandie (Normandy)
Время звучания:
01:12:24
Главы (разбивка по трекам):
нет
Качество:
HDTV
Контейнер:
MP4
Состав:
  • Damien Schmitt : batterie, chant
  • Michael Lecoq : clavier, chant
  • Mika Joseph : clavier talkbox
  • Yann Negrit : guitare, chant
  • Swaéli Mbappé : basse, chant
Видео:
AVC (h264) / 1920*1080p / 16:9 / 4120kbps / 25fps
Аудио#1:
AAC LC, 256kbps, 48kHz, 2ch
Описание:

dam'nco — это команда из шести лучших музыкантов Франции, исполняющая современный, мелодичный джаз, наполненный запоминающимися ритмами, взрывными импровизациями и дополненный неповторимым французским колоритом!
Композиции группы вдохновлены атмосферой различных районов Парижа, в которых проживают участники группы, и сплетены из самых разнообразных музыкальных стилей и направлений.
dam'nco воплощает собой дух Франции 21-века — сплав различных культур и народов.
dam'nco — это новое лицо французского JAZZ POP!

Дополнительная информация:
Отчёт DVDInfo/MediaInfo/BDInfo
Общее
Полное имя : \\2018 Dam'nco - Jazz Sous Les Pommiers [HDTV 1080p].mp4
Формат : MPEG-4
Профиль формата : Base Media
Идентификатор кодека : isom (isom/iso2/avc1/mp41)
Размер файла : 2,22 Гбайт
Продолжительность : 1 ч. 12 м.
Общий поток : 4389 Кбит/сек
Программа кодирования : VideoReDo (Lavf57.71.100)

Видео
Идентификатор : 1
Формат : AVC
Формат/Информация : Advanced Video Codec
Профиль формата : High@L4.1
Настройки формата : CABAC / 4 Ref Frames
Параметр CABAC формата : Да
Параметр RefFrames формата : 4 кадра
Идентификатор кодека : avc1
Идентификатор кодека/Информация : Advanced Video Coding
Продолжительность : 1 ч. 12 м.
Битрейт : 4120 Кбит/сек
Ширина : 1920 пикселей
Высота : 1080 пикселей
Соотношение сторон : 16:9
Режим частоты кадров : Постоянный
Частота кадров : 25,000 кадров/сек
Цветовое пространство : YUV
Субдискретизация насыщенности : 4:2:0
Битовая глубина : 8 бит
Тип развёртки : Прогрессивная
Бит/(Пиксели*Кадры) : 0.079
Размер потока : 2,08 Гбайт (94%)
Цветовой диапазон : Limited
Основные цвета : BT.709
Характеристики трансфера : BT.709
Коэффициенты матрицы : BT.709
Codec configuration box : avcC

Аудио
Идентификатор : 2
Формат : AAC LC
Формат/Информация : Advanced Audio Codec Low Complexity
Идентификатор кодека : mp4a-40-2
Продолжительность : 1 ч. 12 м.
Duration_LastFrame : -21 мс.
Вид битрейта : Постоянный
Битрейт : 256 Кбит/сек
Каналы : 2 канала
ChannelLayout : L R
Частота : 48,0 КГц
Частота кадров : 46,875 кадров/сек (1024 SPF)
Метод сжатия : С потерями
Размер потока : 133 Мбайт (6%)
Язык : French
Default : Да
AlternateGroup/String : 1
Скриншоты видео
2018 Dam'nco - at Jazz Sous Les Pommiers [HDTV 1080p] 02018 Dam'nco - at Jazz Sous Les Pommiers [HDTV 1080p] 12018 Dam'nco - at Jazz Sous Les Pommiers [HDTV 1080p] 22018 Dam'nco - at Jazz Sous Les Pommiers [HDTV 1080p] 32018 Dam'nco - at Jazz Sous Les Pommiers [HDTV 1080p] 42018 Dam'nco - at Jazz Sous Les Pommiers [HDTV 1080p] 52018 Dam'nco - at Jazz Sous Les Pommiers [HDTV 1080p] 6
По всем вопросам пишите личное сообщение пользователю M0p94ok.
476
05:59
Не идет скачивание, помогите, спасите sos sos sos