Поиск

2018 Christian McBride's New Jawn - Malta Jazz Fest [HDTV 1080p]

2018 Christian McBride's New Jawn - Malta Jazz Fest [HDTV 1080p]
Дата проведения концерта (записи):
21 июля 2018
Место проведения:
Malta Jazz Festival
Время звучания:
01:09:53
Главы (разбивка по трекам):
нет
Качество:
HDTV
Контейнер:
MP4
Состав:
  • Christian McBride (double bass)
  • Josh Evans (trumpet)
  • Marcus Strickland (saxes)
  • Nasheet Waits (drums)
Треклист:

01. Pier One
02. John Day
03. K-Kelli Sketch
04. Ballad For Earnie Washington
05. The Middle Man
06. Brother Malcolm

Видео:
AVC,1920*1080i (16:9), 6464kbps, 25fps
Аудио#1:
AAC LC, 256kbps, 48kHz, 2ch
Дополнительная информация:

Filmed in #8K for the first time with the latest Red Helium sensors, you'll see colors and hear the sound like you never experiences before.

Отчёт DVDInfo/MediaInfo/BDInfo
Общее
Полное имя : \\2018 Christian McBride - Malta Jazz Fest [1080p].mp4
Формат : MPEG-4
Профиль формата : Base Media
Идентификатор кодека : isom (isom/iso2/avc1/mp41)
Размер файла : 3,28 Гбайт
Продолжительность : 1 ч. 9 м.
Общий поток : 6726 Кбит/сек
HDVideo : Yes

Видео
Идентификатор : 1
Формат : AVC
Формат/Информация : Advanced Video Codec
Профиль формата : High@L4.1
Настройки формата : CABAC / 4 Ref Frames
Параметр CABAC формата : Да
Параметр RefFrames формата : 4 кадра
Идентификатор кодека : avc1
Идентификатор кодека/Информация : Advanced Video Coding
Продолжительность : 1 ч. 9 м.
Битрейт : 6464 Кбит/сек
Ширина : 1920 пикселей
Высота : 1080 пикселей
Соотношение сторон : 16:9
Режим частоты кадров : Постоянный
Частота кадров : 25,000 кадров/сек
Цветовое пространство : YUV
Субдискретизация насыщенности : 4:2:0
Битовая глубина : 8 бит
Тип развёртки : Прогрессивная
Бит/(Пиксели*Кадры) : 0.125
Размер потока : 3,16 Гбайт (96%)
Библиотека кодирования : x264 core 157 r2958 57baac4
Настройки программы : cabac=1 / ref=4 / deblock=1:-4:-4 / analyse=0x3:0x113 / me=hex / subme=7 / psy=1 / psy_rd=1.00:0.20 / mixed_ref=1 / me_range=16 / chroma_me=1 / trellis=1 / 8x8dct=1 / cqm=0 / deadzone=21,11 / fast_pskip=1 / chroma_qp_offset=-3 / threads=9 / lookahead_threads=1 / sliced_threads=0 / nr=0 / decimate=1 / interlaced=0 / bluray_compat=0 / constrained_intra=0 / bframes=3 / b_pyramid=2 / b_adapt=2 / b_bias=0 / direct=3 / weightb=1 / open_gop=0 / weightp=2 / keyint=250 / keyint_min=25 / scenecut=40 / intra_refresh=0 / rc_lookahead=40 / rc=2pass / mbtree=1 / bitrate=6464 / ratetol=1.0 / qcomp=0.60 / qpmin=0 / qpmax=69 / qpstep=4 / cplxblur=20.0 / qblur=0.5 / ip_ratio=1.40 / aq=1:1.00
Цветовой диапазон : Limited
Основные цвета : BT.709
Характеристики трансфера : BT.709
Коэффициенты матрицы : BT.709
Codec configuration box : avcC

Аудио
Идентификатор : 2
Формат : AAC LC
Формат/Информация : Advanced Audio Codec Low Complexity
Идентификатор кодека : mp4a-40-2
Продолжительность : 1 ч. 9 м.
Вид битрейта : Постоянный
Битрейт : 256 Кбит/сек
Каналы : 2 канала
ChannelLayout : L R
Частота : 48,0 КГц
Частота кадров : 46,875 кадров/сек (1024 SPF)
Метод сжатия : С потерями
Размер потока : 128 Мбайт (4%)
Язык : Russian
Default : Да
AlternateGroup/String : 1
Скриншоты видео
2018 Christian McBride's New Jawn - Malta Jazz Fest [HDTV 1080p] 02018 Christian McBride's New Jawn - Malta Jazz Fest [HDTV 1080p] 12018 Christian McBride's New Jawn - Malta Jazz Fest [HDTV 1080p] 22018 Christian McBride's New Jawn - Malta Jazz Fest [HDTV 1080p] 32018 Christian McBride's New Jawn - Malta Jazz Fest [HDTV 1080p] 42018 Christian McBride's New Jawn - Malta Jazz Fest [HDTV 1080p] 5
Download available for power users only.
562
Нет комментариев. Ваш будет первым!