Поиск

2017 Stephan Oliva, Susanne Abbuehl, Oyvind Hegg - Princess [HDTV 1080i]

2017 Stephan Oliva, Susanne Abbuehl, Oyvind Hegg - Princess [HDTV 1080i]
Стиль:
Дата проведения концерта (записи):
07 июля 2017
Место проведения:
Jazz a Porquerolles
Время звучания:
00:54:39
Состав:
  • Stephan Oliva piano
  • Susanne Abbuehl vocals
  • Edward Perraud drums
Видео:
AVC, 1920*1080 (16:9), 5469kbps, 25fps
Аудио#1:
MP2, 256kbps, 48kHz, 2ch
Описание:

Французский пианист Стефан Олива и швейцарско-голландская певица Сюзанна Аббюэль исполняют глубокий джаз, который вызывает задумчивость. Олива нетипичный пианист, скользящий в тёмных и глубоко внутренних мелодиях. Среди его многочисленных альбомов можно отметить работу 2011 года FILM NOIR, которая обновила его вкус к темной атмосфере, а в 2015 году он отдал яркую дань уважения братьям Гершвин в одноименном альбоме GERSHWIN с кларнетистом Жан-Марком Фольцем (Jean-Marc Foltz).

Вторая участница концерта уже показала свой сильный потенциал на своем дебюте в апреле 2001 года, её первый альбом — минималистский и увлекательный. На протяжении многих лет дива зарекомендовала себя как сильный голос в мире джаза благодаря своему серьёзному и очаровательному звучанию, эмалированному сладостью. В 2006 году она отважилась на вокальные пейзажи в Compass (2006), своеобразную оду путешествиям, и исследовала интимные пространства с The Gift (2013), празднование одиноких поэтов, Эмили Дикинсон, Эмили Бронте и Сары Тисдейл.

В 2017 году музыканты объединились для опуса под названием «Принцесса». Они пересекают химерические пейзажи, где темная мелодия фортепиано контрастирует с мягким и тонким тоном вокалиста. Их третий компаньон в этом альбоме, норвежский перкуссионист Ойвинд Хегг-Лунде (Oyvind Hegg-Lunde), заменён на этом выступлении Эдвардом Перро.

 
Скриншоты

Отчёт DVDInfo/MediaInfo/BDInfo
Общее
Идентификатор : 1 (0x1)
Полное имя : \\Stephan Oliva\2017 Stephan Oliva, Susanne Abbuehl, Oyvind Hegg - Princess.ts
Формат : MPEG-TS
Размер файла : 2,30 Гбайт
Продолжительность : 54 м. 39 с.
Режим общего битрейта : Переменный
Общий поток : 6025 Кбит/сек

Видео
Идентификатор : 203 (0xCB)
Идентификатор меню : 20103 (0x4E87)
Формат : AVC
Формат/Информация : Advanced Video Codec
Профиль формата : High@L4
Настройки формата : CABAC / 4 Ref Frames
Параметр CABAC формата : Да
Параметр RefFrames формата : 4 кадра
Параметр GOP формата : M=4, N=28
Идентификатор кодека : 27
Продолжительность : 54 м. 39 с.
Битрейт : 5469 Кбит/сек
Ширина : 1920 пикселей
Высота : 1080 пикселей
Соотношение сторон : 16:9
Частота кадров : 25,000 кадров/сек
Стандарт вещания : Component
Цветовое пространство : YUV
Субдискретизация насыщенности : 4:2:0
Битовая глубина : 8 бит
Тип развёртки : Чересстрочная
Метод сохранения типа развёртки : Раздельные поля
Порядок развёртки : Верхнее поле первое
Бит/(Пиксели*Кадры) : 0.105
Размер потока : 2,09 Гбайт (91%)
Цветовой диапазон : Limited
Основные цвета : BT.709
Характеристики трансфера : BT.709
Коэффициенты матрицы : BT.709

Аудио
Идентификатор : 303 (0x12F)
Идентификатор меню : 20103 (0x4E87)
Формат : MPEG Audio
Версия формата : Version 1
Профиль формата : Layer 2
Идентификатор кодека : 3
Продолжительность : 54 м. 39 с.
Вид битрейта : Постоянный
Битрейт : 256 Кбит/сек
Каналы : 2 канала
Частота : 48,0 КГц
Частота кадров : 41,667 кадра/сек (1152 SPF)
Метод сжатия : С потерями
Размер потока : 100 Мбайт (4%)
Язык : Russian
По всем вопросам пишите личное сообщение пользователю M0p94ok.
834
Нет комментариев. Ваш будет первым!