Поиск

2017 Omar Sosa - Quarteto Afrocubano [HDTV 1080i]

2017 Omar Sosa - Quarteto Afrocubano [HDTV 1080i]
Время звучания:
00:52:16
Главы (разбивка по трекам):
нет
Качество:
HDTV
Состав:
  • Omar Sosa - piano, Fender Rhodes
  • Leandro Saint-Hill - vocals, flute, saxophone, percussions
  • Childo Tomas - electric bass
  • Lukmil Perez - drums
Треклист:
  1. Iyawo
  2. My Three Note
  3. Sad Meeting
  4. 4U
  5. Old Afro A Baba
  6. Muevete End
Видео:
AVC,1920*1080i (16:9), 4191kbps, 25fps
Аудио#1:
AAC LC, 256kbps, 48kHz, 2ch
Отчёт DVDInfo/MediaInfo/BDInfo
Общее
Полное имя : \\2017 Omar Sosa - Quarteto Afrocubano [HDTV 1080i].mp4
Формат : MPEG-4
Профиль формата : Base Media
Идентификатор кодека : isom (isom/iso2/avc1/mp41)
Размер файла : 1,66 Гбайт
Продолжительность : 53 м. 16 с.
Режим общего битрейта : Переменный
Общий поток : 4458 Кбит/сек
Программа кодирования : VideoReDo (Lavf57.71.100)

Видео
Идентификатор : 1
Формат : AVC
Формат/Информация : Advanced Video Codec
Профиль формата : High@L4
Настройки формата : CABAC / 4 Ref Frames
Параметр CABAC формата : Да
Параметр RefFrames формата : 4 кадра
Параметр GOP формата : M=4, N=28
Идентификатор кодека : avc1
Идентификатор кодека/Информация : Advanced Video Coding
Продолжительность : 53 м. 15 с.
Битрейт : 4191 Кбит/сек
Ширина : 1920 пикселей
Высота : 1080 пикселей
Соотношение сторон : 16:9
Режим частоты кадров : Постоянный
Частота кадров : 50,000 кадров/сек
Частота кадров в оригинале : 25,000 кадров/сек
Стандарт вещания : Component
Цветовое пространство : YUV
Субдискретизация насыщенности : 4:2:0
Битовая глубина : 8 бит
Тип развёртки : Чересстрочная
Метод сохранения типа развёртки : Раздельные поля
Порядок развёртки : Верхнее поле первое
Бит/(Пиксели*Кадры) : 0.040
Размер потока : 1,56 Гбайт (94%)
Цветовой диапазон : Limited
Основные цвета : BT.709
Характеристики трансфера : BT.709
Коэффициенты матрицы : BT.709
Codec configuration box : avcC

Аудио
Идентификатор : 2
Формат : AAC LC
Формат/Информация : Advanced Audio Codec Low Complexity
Идентификатор кодека : mp4a-40-2
Продолжительность : 53 м. 16 с.
Duration_LastFrame : -21 мс.
Вид битрейта : Переменный
Битрейт : 253 Кбит/сек
Максимальный битрейт : 256 Кбит/сек
Каналы : 2 канала
ChannelLayout : L R
Частота : 48,0 КГц
Частота кадров : 46,875 кадров/сек (1024 SPF)
Метод сжатия : С потерями
Размер потока : 96,5 Мбайт (6%)
Язык : Russian
Default : Да
AlternateGroup/String : 1
Скриншоты видео
2017 Omar Sosa - Quarteto Afrocubano [HDTV 1080i] 02017 Omar Sosa - Quarteto Afrocubano [HDTV 1080i] 12017 Omar Sosa - Quarteto Afrocubano [HDTV 1080i] 22017 Omar Sosa - Quarteto Afrocubano [HDTV 1080i] 32017 Omar Sosa - Quarteto Afrocubano [HDTV 1080i] 4
По всем вопросам пишите личное сообщение пользователю M0p94ok.
511
Нет комментариев. Ваш будет первым!